1 сезон

1 сезон

iTunes

1

КиноПоиск HD

Кинопоиск HD

iTunes

13

1 сезон

RePack

30

Ultimate

ВАЖНО

ИГРА 18+

pack

RePack

MK11
pack

Легкие деньги

RePack

jed

RePack

fifa19

RePack

RDR2

RePack

NEED FOR SPEED™ PAYBACK

4 сезон

9 сезон

Бесстыжие 9 сезон

Все сериалы

все сериалы на PB.wtf

RePack

FAR CRY 5
  
Magnet ссылка

Охота на зверя / Belly of the Beast (Сиу-Тунг Чинг) [2003, боевик, BDRip-AVC by msltel] MVO, DVO pb.wtf

Охота на зверя через торрент pb.wtf

Размер: 2.42 GB | Добавлен: 1 год 2 мес. назад | Торрент скачан:21 раз
Скачать  

29-01-2020 05:31 Охота на зверя Скачать торрент  

Название: Охота на зверя
Оригинальное название: Belly of the Beast
Год выпуска: 2003
Страна: Канада, Гонконг, Великобритания
Жанр: боевик
Продолжительность: 01:31:17
Перевод: профессиональный многоголосый, профессиональный двухголосый
Режиссер: Сиу-Тунг Чинг
В ролях: Стивен Сигал, Байрон Манн, Моника Ло, Том Ву, Сара Малакул Лэйн, Патрик Робинсон, Винсент Риотта, Чау Сиу Танг, Кеворк Маликян, Понгпат Вачирабунджонг, Аластер Варди, Энди Адам, Шакрит Ямнарм, Макс Руддок, Мартин МакДугалл, Николас Рошетт, Йен Робисан, Колин Стинтон, Ваннакит Сириопут, Дон Фергюсон, Эрик Маркус Шуетз

О фильме: Американка Джессика Хоппер и её подруга, дочь сенатора, находясь в Таиланде, захватываются террористами, угрожающими убить девушек, если их требования не будут выполнены. На помощь заложницам отправляется Джейк Хоппер, отец одной из пленённых девушек, бывший сотрудник ЦРУ и мастер боевых искусств...



Качество: BDRip-AVC
Формат: MKV
Видео: MPEG-4 AVC, 2678 Кбит/с, 1024x576, 23.976 кадр/с
Аудио 1: русский, AC3, 224 kbps, 2 ch, 48 kHz [закадровый многоголосый, т/к Россия]
Аудио 2: русский, AC3, 448 kbps, 6 ch, 48 kHz [закадровый двухголосый, R5]
Аудио 3: английский, AC3, 448 kbps, 6 ch, 48 kHz [оригинал]
Субтитры: английские
Главы/чаптеры
Общее
Уникальный идентификатор : 180688121578730464811644498733241730569 (0x87EF44326BA6342D83EA56EEDADC0609)
Полное имя : D:\Video\Охота на зверя.2003.BDRip-AVC.mkv
Формат : Matroska
Версия формата : Version 4
Размер файла : 2,42 Гбайт
Продолжительность : 1 ч. 31 м.
Общий поток : 3800 Кбит/сек
Название фильма : Rip by msltel
Дата кодирования : UTC 2020-01-28 15:14:04
Программа кодирования : mkvmerge v8.2.0 ('World of Adventure') 64bit
Библиотека кодирования : libebml v1.3.1 + libmatroska v1.4.2

Видео
Идентификатор : 1
Формат : AVC
Формат/Информация : Advanced Video Codec
Профиль формата : High@L4.1
Настройки формата : CABAC / 9 Ref Frames
Параметр CABAC формата : Да
Параметр RefFrames формата : 9 кадров
Идентификатор кодека : V_MPEG4/ISO/AVC
Продолжительность : 1 ч. 31 м.
Битрейт : 2678 Кбит/сек
Ширина : 1024 пикселя
Высота : 576 пикселей
Соотношение сторон : 16:9
Режим частоты кадров : Постоянный
Частота кадров : 23,976 (24000/1001) кадра/сек
Цветовое пространство : YUV
Субдискретизация насыщенности : 4:2:0
Битовая глубина : 8 бит
Тип развёртки : Прогрессивная
Бит/(Пиксели*Кадры) : 0.189
Размер потока : 1,71 Гбайт (70%)
Библиотека кодирования : x264 core 157 r2969 d4099dd
Настройки программы : cabac=1 / ref=9 / deblock=1:-2:-2 / analyse=0x3:0x113 / me=umh / subme=11 / psy=1 / psy_rd=1.00:0.15 / mixed_ref=1 / me_range=32 / chroma_me=1 / trellis=2 / 8x8dct=1 / cqm=0 / deadzone=21,11 / fast_pskip=0 / chroma_qp_offset=-3 / threads=6 / lookahead_threads=1 / sliced_threads=0 / nr=0 / decimate=1 / interlaced=0 / bluray_compat=0 / constrained_intra=0 / bframes=10 / b_pyramid=2 / b_adapt=2 / b_bias=0 / direct=1 / weightb=1 / open_gop=0 / weightp=2 / keyint=230 / keyint_min=23 / scenecut=40 / intra_refresh=0 / rc_lookahead=40 / rc=crf / mbtree=0 / crf=21.6 / qcomp=0.60 / qpmin=0 / qpmax=69 / qpstep=4 / vbv_maxrate=50000 / vbv_bufsize=62500 / crf_max=0.0 / nal_hrd=none / filler=0 / ip_ratio=1.40 / pb_ratio=1.30 / aq=1:1.00
Язык : English
Default : Да
Forced : Нет

Аудио #1
Идентификатор : 2
Формат : AC-3
Формат/Информация : Audio Coding 3
Коммерческое название : Dolby Digital
Идентификатор кодека : A_AC3
Продолжительность : 1 ч. 31 м.
Вид битрейта : Постоянный
Битрейт : 224 Кбит/сек
Каналы : 2 канала
ChannelLayout : L R
Частота : 48,0 КГц
Частота кадров : 31,250 кадров/сек (1536 SPF)
Метод сжатия : С потерями
Размер потока : 146 Мбайт (6%)
Заголовок : MVO Россия
Язык : Russian
ServiceKind/String : Complete Main
Default : Да
Forced : Нет

Аудио #2
Идентификатор : 3
Формат : AC-3
Формат/Информация : Audio Coding 3
Коммерческое название : Dolby Digital
Идентификатор кодека : A_AC3
Продолжительность : 1 ч. 31 м.
Вид битрейта : Постоянный
Битрейт : 448 Кбит/сек
Каналы : 6 каналов
ChannelLayout : L R C LFE Ls Rs
Частота : 48,0 КГц
Частота кадров : 31,250 кадров/сек (1536 SPF)
Метод сжатия : С потерями
Размер потока : 293 Мбайт (12%)
Заголовок : DVO R5
Язык : Russian
ServiceKind/String : Complete Main
Default : Нет
Forced : Нет

Аудио #3
Идентификатор : 4
Формат : AC-3
Формат/Информация : Audio Coding 3
Коммерческое название : Dolby Digital
Идентификатор кодека : A_AC3
Продолжительность : 1 ч. 31 м.
Вид битрейта : Постоянный
Битрейт : 448 Кбит/сек
Каналы : 6 каналов
ChannelLayout : L R C LFE Ls Rs
Частота : 48,0 КГц
Частота кадров : 31,250 кадров/сек (1536 SPF)
Метод сжатия : С потерями
Размер потока : 293 Мбайт (12%)
Заголовок : original
Язык : English
ServiceKind/String : Complete Main
Default : Нет
Forced : Нет

Текст
Идентификатор : 5
Формат : UTF-8
Идентификатор кодека : S_TEXT/UTF8
Идентификатор кодека/Информация : UTF-8 Plain Text
Продолжительность : 1 ч. 27 м.
Битрейт : 35 бит/сек
ElementCount : 811
Размер потока : 22,8 Кбайт (0%)
Заголовок : английские
Язык : English
Default : Нет
Forced : Нет

Меню
00:00:00.000 : en:Chapter 1
00:07:25.361 : en:Chapter 2
00:15:00.733 : en:Chapter 3
00:20:56.088 : en:Chapter 4
00:29:19.090 : en:Chapter 5
00:38:46.657 : en:Chapter 6
00:45:24.263 : en:Chapter 7
00:53:24.284 : en:Chapter 8
00:59:56.509 : en:Chapter 9
01:08:15.174 : en:Chapter 10
01:14:45.522 : en:Chapter 11
01:24:15.133 : en:Chapter 12
01:31:16.387 : en:Chapter 13
pb.wtf



Скачать Охота на зверя через торрент https://d.radikal.ru/d42/2001/f1/aa6eda207fe7.jpg Скачать фильм Охота на зверя через торрент бесплантно в хорошем качестве О фильме: Американка Джессика Хоппер и её подруга, дочь сенатора, находясь в Таиланде, захватываются террористами, угрожающими убить ... 10 10 1
Торрент: Зарегистрирован [2020-01-29 05:31] · скачан: 21 раз
Статус: √ проверено
Размер: 2.42 GB
Как cкачать? Как скачать Охота на зверя через торрент | UTorrent

% Раздел Тема Автор DL S | L
Фильмы [HD 720p, 1080p] (Хороший звук DUB, MVO) [ 11.01 GB ] Охота на зверя / Belly of the Beast [2003 BDRip 1080p by msltel] MVO DVO msltel Скачать
1 | 0
Фильмы [HD 720p, 1080p] (Хороший звук DUB, MVO) [ 4.26 GB ] Охота на зверя / Belly of the Beast [2003 BDRip 720p by msltel] MVO DVO msltel Скачать
1 | 0

28-11-2019 20:33  

Отключить всю рекламу на сайте

    Дорогой пользователь! Огромная просьба, поблагодарите релизера, оцените раздачу и оставьте свои комментарий, если Вы скачали Охота на зверя через торрент бесплатно! Внесите свою лепту в развитие PiratBit!
    Комментировать посты могут только пользователи прошедшие не сложную регистрацию
    Показать сообщения:    

    Охота на зверя через торрент
    Скачать бесплатно Охота на зверя
    Охота на зверя скачать торрент
    Охота на зверя смотреть онлайн
    Cкачать фильм Охота на зверя бесплатно
    Охота на зверя скачать торрент в хорошем качестве
    Охота на зверя смотреть онлайн бесплатно в хорошем качестве


    Вы не можете начинать темы
    Вы не можете отвечать на сообщения
    Вы не можете редактировать свои сообщения
    Вы не можете удалять свои сообщения
    Вы не можете голосовать в опросах
    Вы не можете прикреплять файлы к сообщениям
    Вы можете скачивать файлы