Ссылка на приватное зеркало всего за 1$. Внимание количество ограничено!!!

iTunes

1+1

iTunes

мы

iTunes

1

WEB-DLRip

Джокер

Пифагор

Ведьмак / The Witcher сериал

iTunes

ПШазам

iTunes

Оно 2

iTunes

30
pack

Новость дня

ВАЖНО

!!Акция!!

Alien_RageХит недели

RePack

Resident Evil 21

ИГРА 18+

pack

RePack

jed

!!Акция!!

Alien_Rage

RePack

fifa19

RePack

Assassins Creed: Odyssey

RePack

NEED FOR SPEED™ PAYBACK

4 сезон

9 сезон

Бесстыжие 9 сезон

Все сериалы

все сериалы на PB.wtf

RePack

FAR CRY 5
  

Барашек Шон: Фермагеддон / A Shaun the Sheep Movie: Farmageddon (Уилл Бечер, Ричард Фелан) [2019, мультфильм, фантастика, фэнтези, комедия, приключения, семейный, BDRip 1080p] pb.wtf

Барашек Шон: Фермагеддон через торрент pb.wtf

Раздают: 11 [ 797 KB/s ]
Размер: 7.17 GB | Добавлен: 1 мес. 5 д. назад | Торрент скачан:160 раз
Скачать  

30-01-2020 05:49 Барашек Шон: Фермагеддон Скачать торрент  

Барашек Шон: Фермагеддон | A Shaun the Sheep Movie: Farmageddon
Год выпуска: 2019
Страна: Великобритания, Франция, США
Студия: Aardman Animations, Amazon Prime Video, Anton, Studio Canal
Жанр: мультфильм, фантастика, фэнтези, комедия, приключения, семейный
Продолжительность: 01:26:47
Перевод: не требуется (нет диалогов)
Субтитры: отсутствуют

Режиссер: Уилл Бечер, Ричард Фелан

rating

В ролях: Джастин Флетчер, Джон Шпаркс, Крис Морелл, Энди Найман, Дэвид Холт, Кейт Харбор, Амалия Витале, Джо Сагг

Описание: Странные огни над городом предвещают прибытие таинственного гостя из далекой галактики... Очаровательная и озорная Лу-Ла терпит крушение неподалеку от фермы Шона. Инопланетные способности и проказы неугомонной Лу-Лы очаровывают отару, и Шон решает помочь внеземному другу найти ее корабль. Но он не знает, что зловещее агентство по охоте на инопланетян уже идет по их следу. Смогут ли Шон и его друзья предотвратить Фермагеддон, пока не стало слишком поздно?

Качество: BDRip 1080p
Формат: MKV

Видео: 1920x804 (2,40:1), 24 fps, MPEG-4 AVC ~ 11,2 Мbps avg, 0.302 bit/pixel
Аудио: 48 kHz, AC3 Dolby Digital, 3/2 (L,C,R,l,r) + LFE ch, ~640 kbps
скриншот  скриншот  скриншот  скриншот  скриншот  

Общее
Уникальный идентификатор : 15859550167949260520612559952755911749 (0xBEE7031A153BE0481DB204EDE456C45)
Полное имя : A.Shaun.the.Sheep.Movie.Farmageddon.2019.1080p.BluRay.DD5.1 x264.mkv
Формат : Matroska
Версия формата : Version 4
Размер файла : 7,17 Гбайт
Продолжительность : 1 ч. 26 м.
Общий поток : 11,8 Мбит/сек
Название фильма : Барашек Шон: Фермагеддон / A Shaun the Sheep Movie: Farmageddon (2019)
Дата кодирования : UTC 2020-02-24 21:44:06
Программа кодирования : mkvmerge v41.0.0 ('Smarra') 64-bit
Библиотека кодирования : libebml v1.3.9 + libmatroska v1.5.2

Видео
Идентификатор : 1
Формат : AVC
Формат/Информация : Advanced Video Codec
Профиль формата : High@L4.1
Настройки формата : CABAC / 5 Ref Frames
Параметр CABAC формата : Да
Параметр RefFrames формата : 5 кадров
Идентификатор кодека : V_MPEG4/ISO/AVC
Продолжительность : 1 ч. 26 м.
Битрейт : 11,2 Мбит/сек
Ширина : 1920 пикселей
Высота : 804 пикселя
Соотношение сторон : 2,40:1
Режим частоты кадров : Постоянный
Частота кадров : 24,000 кадра/сек
Цветовое пространство : YUV
Субдискретизация насыщенности : 4:2:0
Битовая глубина : 8 бит
Тип развёртки : Прогрессивная
Бит/(Пиксели*Кадры) : 0.302
Размер потока : 6,78 Гбайт (95%)
Заголовок : BdC
Библиотека кодирования : x264 core 157 r2969 d4099dd
Настройки программы : cabac=1 / ref=5 / deblock=1:-3:-3 / analyse=0x3:0x133 / me=umh / subme=10 / psy=1 / psy_rd=1.00:0.00 / mixed_ref=1 / me_range=32 / chroma_me=1 / trellis=2 / 8x8dct=1 / cqm=0 / deadzone=21,11 / fast_pskip=0 / chroma_qp_offset=-2 / threads=8 / lookahead_threads=1 / sliced_threads=0 / nr=0 / decimate=0 / interlaced=0 / bluray_compat=0 / constrained_intra=0 / bframes=8 / b_pyramid=2 / b_adapt=2 / b_bias=0 / direct=3 / weightb=1 / open_gop=0 / weightp=2 / keyint=240 / keyint_min=24 / scenecut=40 / intra_refresh=0 / rc_lookahead=60 / rc=2pass / mbtree=0 / bitrate=11199 / ratetol=1.0 / qcomp=0.60 / qpmin=0 / qpmax=69 / qpstep=4 / cplxblur=20.0 / qblur=0.5 / vbv_maxrate=62500 / vbv_bufsize=78125 / nal_hrd=none / filler=0 / ip_ratio=1.30 / pb_ratio=1.20 / aq=3:0.80
Default : Да
Forced : Нет
Цветовой диапазон : Limited
Основные цвета : BT.709
Характеристики трансфера : BT.709
Коэффициенты матрицы : BT.709

Аудио
Идентификатор : 2
Формат : AC-3
Формат/Информация : Audio Coding 3
Коммерческое название : Dolby Digital
Идентификатор кодека : A_AC3
Продолжительность : 1 ч. 26 м.
Вид битрейта : Постоянный
Битрейт : 640 Кбит/сек
Каналы : 6 каналов
ChannelLayout : L R C LFE Ls Rs
Частота : 48,0 КГц
Частота кадров : 31,250 кадров/сек (1536 SPF)
Метод сжатия : С потерями
Размер потока : 397 Мбайт (5%)
Default : Да
Forced : Нет

Меню
00:00:00.000 : en:00:00:00.000
00:06:22.208 : en:00:06:22.208
00:10:49.375 : en:00:10:49.375
00:17:31.500 : en:00:17:31.500
00:22:46.125 : en:00:22:46.125
00:32:52.000 : en:00:32:52.000
00:38:18.833 : en:00:38:18.833
00:44:27.667 : en:00:44:27.667
00:54:43.917 : en:00:54:43.917
01:00:59.208 : en:01:00:59.208
01:05:47.750 : en:01:05:47.750
01:12:25.042 : en:01:12:25.042

pb.wtf



Скачать Барашек Шон: Фермагеддон через торрент https://a.radikal.ru/a42/2001/ce/2c37526cb316.jpg Скачать фильм Барашек Шон: Фермагеддон через торрент бесплантно в хорошем качестве Описание: Странные огни над городом предвещают прибытие таинственного гостя из далекой галактики... Очаровательная и озорная Лу-Ла терпит ... 9.9 10 14
Info! Золотая раздача, скачанное не засчитывается.
Торрент: Зарегистрирован [2020-02-25 04:21] · скачан: 160 раз
Статус: √ проверено
Размер: 7.17 GB
Как cкачать? Как скачать Барашек Шон: Фермагеддон через торрент | qTorrent

% Раздел Тема Автор DL S | L
Иностранные мультфильмы [ 1.46 GB ] Барашек Шон: Фермагеддон / A Shaun the Sheep Movie: Farmageddon [2019 мультфильм BDRip] Twi7ter Скачать
114 | 5
Зарубежные Мультфильмы (BDRip 1080p, 720p, Blu-ray, BD-Remux) [ 4.3 GB ] Барашек Шон: Фермагеддон / A Shaun the Sheep Movie: Farmageddon [2019 мультфильм BDRip 720p] bober100 Скачать
19 | 1
Иностранные мультфильмы [ 1.46 GB ] Барашек Шон: Фермагеддон / A Shaun the Sheep Movie: Farmageddon [2019 мультфильм BDRip] bober100 Скачать
7 | 0

28-11-2019 20:33  

Отключить всю рекламу на сайте

25-02-2020 08:06 Барашек Шон: Фермагеддон Скачать торрент  

спс за релиз...моим мелким оч. понравился мульт!!!pb.wtf



28-02-2020 17:17 Барашек Шон: Фермагеддон Скачать торрент  

Спасибо! позолотил!pb.wtf



    Дорогой пользователь! Огромная просьба, поблагодарите релизера, оцените раздачу и оставьте свои комментарий, если Вы скачали Барашек Шон: Фермагеддон через торрент бесплатно! Внесите свою лепту в развитие PiratBit!
    Комментировать посты могут только пользователи прошедшие не сложную регистрацию
    Показать сообщения:    

    Барашек Шон: Фермагеддон через торрент
    Скачать бесплатно Барашек Шон: Фермагеддон
    Барашек Шон: Фермагеддон скачать торрент
    Барашек Шон: Фермагеддон смотреть онлайн
    Cкачать фильм Барашек Шон: Фермагеддон бесплатно
    Барашек Шон: Фермагеддон скачать торрент в хорошем качестве
    Барашек Шон: Фермагеддон смотреть онлайн бесплатно в хорошем качестве


    Вы не можете начинать темы
    Вы не можете отвечать на сообщения
    Вы не можете редактировать свои сообщения
    Вы не можете удалять свои сообщения
    Вы не можете голосовать в опросах
    Вы не можете прикреплять файлы к сообщениям
    Вы можете скачивать файлы