Ссылка на приватное зеркало нашего сайта всего за 1$. Внимание количество ограничено!!!

2 сезон

iTunes

1 сезон

1

2 сезон

2 сезон

iTunes

1 сезон

RePack

30

Ultimate

ВАЖНО

ИГРА 18+

pack

RePack

MK11
pack

Забери бонус

RePack

jed

!!Акция!!

Alien_Rage

RePack

fifa19

RePack

Assassins Creed: Odyssey

RePack

NEED FOR SPEED™ PAYBACK

4 сезон

9 сезон

Бесстыжие 9 сезон

Все сериалы

все сериалы на PB.wtf

RePack

FAR CRY 5
  

Гив ми либерти / Give Me Liberty (Кирилл Михановский / Kirill Mikhanovsky) [2019, комедия, WEB-DL 1080p] [iTunes] pb.wtf

Гив ми либерти через торрент pb.wtf

Раздают: 3 [ 0 KB/s ]
Размер: 4.34 GB | Добавлен: 10 мес. назад | Торрент скачан:278 раз
Скачать  

30-01-2020 12:12 Гив ми либерти Скачать торрент  

Гив ми либерти / Give Me Liberty
-
Страна: США
Жанр: комедия
Год выпуска: 2019
Продолжительность: 01:51:10
Перевод: Оригинал- Русский / Английский
Cубтитры: Русские, Английские
Оригинальная аудиодорожка: Английский
Режиссёр: Кирилл Михановский / Kirill Mikhanovsky

В ролях: Лорен Спенсер, Крис Галуст, Максим Стоянов, Дарья Екамасова, Зоя Махлина, Дороти Рейнольдс, Шерил Симс-Дэниэлс, Стив Волски, Мишель Каспар, Бен Дерфель

Описание: История о трех поколениях русской эмиграции, о мелких аферистах и обаятельных маргиналах, которые оказываются в одном микроавтобусе по дороге на шумные поминки.


rating
Тип релиза: WEB-DL 1080p BlueBird
Контейнер: MKV
Видео: AVC/H.264, 1920x1032, 5209 kbps, 23.976 fps
Аудио: Russian+English | AC-3, 6 ch, 384 Kbps, 48.0 KHz- iTunes




Код:

General
Unique ID                                : 211140779915930608263135164953199495647 (0x9ED83C2C60777BD2751948BD9B45C9DF)
Complete name                            : /Volumes/Promise Pegasus/Give.Me.Liberty.WEB-DL.1080p.mkv
Format                                   : Matroska
Format version                           : Version 4
File size                                : 4.34 GiB
Duration                                 : 1h 51mn
Overall bit rate                         : 5 595 Kbps
Movie name                               : Give Me Liberty WEB-DL 1080p
Encoded date                             : UTC 2020-01-30 10:55:22
Writing application                      : mkvmerge v43.0.0 ('The Quartermaster') 64-bit
Writing library                          : libebml v1.3.10 + libmatroska v1.5.2

Video
ID                                       : 1
Format                                   : AVC
Format/Info                              : Advanced Video Codec
Format profile                           : High@L4
Format settings                          : CABAC / 4 Ref Frames
Format settings, CABAC                   : Yes
Format settings, ReFrames                : 4 frames
Codec ID                                 : V_MPEG4/ISO/AVC
Duration                                 : 1h 51mn
Bit rate                                 : 5 209 Kbps
Width                                    : 1 920 pixels
Height                                   : 1 032 pixels
Display aspect ratio                     : 1.85:1
Frame rate mode                          : Constant
Frame rate                               : 23.976 (24000/1001) fps
Color space                              : YUV
Chroma subsampling                       : 4:2:0
Bit depth                                : 8 bits
Scan type                                : Progressive
Bits/(Pixel*Frame)                       : 0.110
Stream size                              : 4.04 GiB (93%)
Language                                 : English
Default                                  : Yes
Forced                                   : No
Color range                              : Limited
Color primaries                          : BT.709
Transfer characteristics                 : BT.709
Matrix coefficients                      : BT.709

Audio
ID                                       : 2
Format                                   : AC-3
Format/Info                              : Audio Coding 3
Commercial name                          : Dolby Digital
Codec ID                                 : A_AC3
Duration                                 : 1h 51mn
Bit rate mode                            : Constant
Bit rate                                 : 384 Kbps
Channel(s)                               : 6 channels
Channel layout                           : L R C LFE Ls Rs
Sampling rate                            : 48.0 KHz
Frame rate                               : 31.250 fps (1536 SPF)
Compression mode                         : Lossy
Stream size                              : 305 MiB (7%)
Title                                    : Original English + Russian
Language                                 : English
Service kind                             : Complete Main
Default                                  : Yes
Forced                                   : No

Text #1
ID                                       : 3
Format                                   : UTF-8
Codec ID                                 : S_TEXT/UTF8
Codec ID/Info                            : UTF-8 Plain Text
Duration                                 : 1h 46mn
Bit rate                                 : 90 bps
Count of elements                        : 1386
Stream size                              : 70.0 KiB (0%)
Title                                    : Russian full
Language                                 : Russian
Default                                  : Yes
Forced                                   : No

Text #2
ID                                       : 4
Format                                   : UTF-8
Codec ID                                 : S_TEXT/UTF8
Codec ID/Info                            : UTF-8 Plain Text
Duration                                 : 1h 50mn
Bit rate                                 : 100 bps
Count of elements                        : 1985
Stream size                              : 80.6 KiB (0%)
Title                                    : English full
Language                                 : English
Default                                  : No
Forced                                   : No

Menu
00:00:00.000                             : en:1
00:05:52.977                             : en:2
00:16:26.902                             : en:3
00:24:09.906                             : en:4
00:30:15.188                             : en:5
00:36:24.223                             : en:6
00:40:27.842                             : en:7
00:48:26.987                             : en:8
00:57:55.305                             : en:9
01:04:39.959                             : en:10
01:13:12.763                             : en:11
01:18:45.470                             : en:12
01:25:36.714                             : en:13
01:33:16.674                             : en:14
01:38:47.421                             : en:15
01:47:07.170                             : en:16

скриншот  скриншот  скриншот  
pb.wtf



Скачать Гив ми либерти через торрент https://i111.fastpic.ru/big/2020/0130/bd/4a199ed3a51d04aaa660503b0a5352bd.jpg Скачать фильм Гив ми либерти через торрент бесплантно в хорошем качестве Описание: История о трех поколениях русской эмиграции, о мелких аферистах и обаятельных маргиналах, которые оказываются в одном ... 9 10 10
Info! Золотая раздача, скачанное не засчитывается.
Торрент: Зарегистрирован [2020-01-30 12:12] · скачан: 278 раз
Статус: √ проверено
Размер: 4.34 GB
Как cкачать? Как скачать Гив ми либерти через торрент | qTorrent

% Раздел Тема Автор DL S | L
Фильмы 2019-2020 [DVDrip, WEB-DLRip, HDrip] (DUB, MVO) [ 2.05 GB ] Гив ми либерти / Give Me Liberty [2019 WEB-DLRip] killermax2013 Скачать
2 | 0

28-11-2019 20:33  

Отключить всю рекламу на сайте

31-01-2020 09:19 Гив ми либерти Скачать торрент  

"Гив ми либерти"
Чето орнул с названия.

Дай хард
Шоушэнк редемпшн
Годфазер
Дарк Найт
Зе Лорд оф зе Рингс
Палп Фикшн
Шиндлерс Листpb.wtf



21-02-2020 15:58 Гив ми либерти Скачать торрент  

Режиссёр (сценарист) думает это комедия!?)) Дурдом и редкая лажа. Русские эмигранты (полные идиоты), проблематичные афроамериканцы, американские инвалиды, дауны и другие больные люди, у всех всё плохо - оказывается так выглядит эмиграция - жизнь комедийная в Америке))
Так и вспоминается:
Маленькие дети! (Русские)
Ни за что на свете
Не ходите в Америку гулять!
В Америке акулы,
В Америке гориллы,
В Америке большие крокодилы.
Будут вас кусать! Бить и обижать!
Не ходите дети в Америку гулять!
В Америке разбойник,
В Америке злодей,
В Америке ужасный БАРМАЛЕЙ!
Фильм вызывает недоумение и раздражение, думаешь ну может что и будет смешное, нет не будет, рейтинг - ???, короче дно!pb.wtf



    Дорогой пользователь! Огромная просьба, поблагодарите релизера, оцените раздачу и оставьте свои комментарий, если Вы скачали Гив ми либерти через торрент бесплатно! Внесите свою лепту в развитие PiratBit!
    Комментировать посты могут только пользователи прошедшие не сложную регистрацию
    Показать сообщения:    

    Гив ми либерти через торрент
    Скачать бесплатно Гив ми либерти
    Гив ми либерти скачать торрент
    Гив ми либерти смотреть онлайн
    Cкачать фильм Гив ми либерти бесплатно
    Гив ми либерти скачать торрент в хорошем качестве
    Гив ми либерти смотреть онлайн бесплатно в хорошем качестве


    Вы не можете начинать темы
    Вы не можете отвечать на сообщения
    Вы не можете редактировать свои сообщения
    Вы не можете удалять свои сообщения
    Вы не можете голосовать в опросах
    Вы не можете прикреплять файлы к сообщениям
    Вы можете скачивать файлы