Ссылка на приватное зеркало всего за 1$. Внимание количество ограничено!!!

iTunes

iTunes

iTunes

1

iTunes

iTunes

iTunes

iTunes

iTunes

30
pack

Новость дня

ВАЖНО

!!Акция!!

Alien_RageХит недели

RePack

Resident Evil 21

ИГРА 18+

pack

RePack

jed

!!Акция!!

Alien_Rage

RePack

fifa19

RePack

Assassins Creed: Odyssey

RePack

NEED FOR SPEED™ PAYBACK

4 сезон

9 сезон

Бесстыжие 9 сезон

Все сериалы

все сериалы на PB.wtf

RePack

FAR CRY 5
  

Хороший лжец / The Good Liar (Билл Кондон) [2019, драма, детектив, BDRip-AVC] DUB (rus, ukr) [iTunes] pb.wtf

Хороший лжец через торрент pb.wtf

Раздают: 10 [ 0 KB/s ]
Размер: 2.22 GB | Добавлен: 3 мес. 29 д. назад | Торрент скачан:621 раз
Скачать  

31-01-2020 05:37 Хороший лжец Скачать торрент  

Хороший лжец | The Good Liar
Год выпуска: 2019
Страна: Великобритания, США, Германия
Студия: BRON Studios, Creative Wealth Media Finance, New Line Cinema
Жанр: драма, детектив
Продолжительность: 01:49:47
Перевод: Дублированный | iTunes
Субтитры: Русские (forced, full), украинские (forced), английские (Full, SDH)

Режиссер: Билл Кондон

rating

В ролях: Хелен Миррен, Иэн Маккеллен, Рассел Тови, Джим Картер, Марк Льюис Джонс, Лори Дэвидсон, Фил Данстер, Лусиан Мсамати, Йоуханнес Хёйкьюр Йоуханнессон, Тунджи Касим

Описание: Профессиональный мошенник Рой Кортни едва верит своей удаче, когда знакомится в сети с богатой вдовой Бетти Маклиш. Очаровав вдову и получив доступ ко всем ее ресурсам, Рой ловит себя на том, что она ему небезразлична.

Качество: BDRip-AVC
Формат: MKV

Видео: 1024x430 (2,40:1), 23,976 fps, MPEG-4 AVC ~ 1948 Kbps avg, 0.185 bit/pixel
Аудио #01: 48 kHz, AC3, 5.1, 384 Kbps | Дублированный | RUS |
Аудио #02: 48 kHz, AC3, 2.0, 192 Kbps | Дублированный | UKR |
Аудио #03: 48 kHz, AC3, 5.1, 384 Kbps | Оригинал | ENG |
скриншот  скриншот  скриншот  скриншот  скриншот  

Общее
Уникальный идентификатор : 206557937825953273095996821578083154965 (0x9B659C9D06023BE7C1998F8969D33C15)
Полное имя : The.Good.Liar.2019.iT.BDRip.x264.Rus.Ukr.Eng.mkv
Формат : Matroska
Версия формата : Version 4
Размер файла : 2,22 Гбайт
Продолжительность : 1 ч. 49 м.
Общий поток : 2904 Кбит/сек
Название фильма : Хороший лжец / The Good Liar (2019)
Дата кодирования : UTC 2020-01-31 03:48:26
Программа кодирования : mkvmerge v41.0.0 ('Smarra') 64-bit
Библиотека кодирования : libebml v1.3.9 + libmatroska v1.5.2
Обложка : Yes
Attachments : cover.jpg

Видео
Идентификатор : 1
Формат : AVC
Формат/Информация : Advanced Video Codec
Профиль формата : High@L4.1
Настройки формата : CABAC / 9 Ref Frames
Параметр CABAC формата : Да
Параметр RefFrames формата : 9 кадров
Идентификатор кодека : V_MPEG4/ISO/AVC
Продолжительность : 1 ч. 49 м.
Битрейт : 1948 Кбит/сек
Ширина : 1024 пикселя
Высота : 430 пикселей
Соотношение сторон : 2,40:1
Режим частоты кадров : Постоянный
Частота кадров : 23,976 (23976/1000) кадра/сек
Цветовое пространство : YUV
Субдискретизация насыщенности : 4:2:0
Битовая глубина : 8 бит
Тип развёртки : Прогрессивная
Бит/(Пиксели*Кадры) : 0.185
Размер потока : 1,49 Гбайт (67%)
Заголовок : #stillet
Библиотека кодирования : x264 core 152 r2851bm ba24899
Настройки программы : cabac=1 / ref=9 / deblock=1:-3:-3 / analyse=0x3:0x113 / me=umh / subme=11 / psy=1 / psy_rd=1.00:0.15 / mixed_ref=1 / me_range=32 / chroma_me=1 / trellis=2 / 8x8dct=1 / cqm=0 / deadzone=21,11 / fast_pskip=0 / chroma_qp_offset=-3 / threads=8 / lookahead_threads=3 / sliced_threads=0 / nr=0 / decimate=0 / interlaced=0 / bluray_compat=0 / constrained_intra=0 / bframes=10 / b_pyramid=2 / b_adapt=2 / b_bias=0 / direct=3 / weightb=1 / open_gop=0 / weightp=2 / keyint=240 / keyint_min=23 / scenecut=40 / intra_refresh=0 / rc=2pass / mbtree=0 / bitrate=1948 / ratetol=1.0 / qcomp=0.60 / qpmin=0 / qpmax=69 / qpstep=4 / cplxblur=20.0 / qblur=0.5 / ip_ratio=1.40 / pb_ratio=1.30 / aq=1:1.00
Язык : English
Default : Да
Forced : Нет

Аудио #1
Идентификатор : 2
Формат : AC-3
Формат/Информация : Audio Coding 3
Коммерческое название : Dolby Digital
Идентификатор кодека : A_AC3
Продолжительность : 1 ч. 49 м.
Вид битрейта : Постоянный
Битрейт : 384 Кбит/сек
Каналы : 6 каналов
ChannelLayout : L R C LFE Ls Rs
Частота : 48,0 КГц
Частота кадров : 31,250 кадров/сек (1536 SPF)
Метод сжатия : С потерями
Размер потока : 301 Мбайт (13%)
Заголовок : iTunes
Язык : Russian
Default : Да
Forced : Да

Аудио #2
Идентификатор : 3
Формат : AC-3
Формат/Информация : Audio Coding 3
Коммерческое название : Dolby Digital
Идентификатор кодека : A_AC3
Продолжительность : 1 ч. 49 м.
Вид битрейта : Постоянный
Битрейт : 192 Кбит/сек
Каналы : 2 канала
ChannelLayout : L R
Частота : 48,0 КГц
Частота кадров : 31,250 кадров/сек (1536 SPF)
Метод сжатия : С потерями
Размер потока : 151 Мбайт (7%)
Заголовок : iTunes
Язык : Ukrainian
Default : Нет
Forced : Нет

Аудио #3
Идентификатор : 4
Формат : AC-3
Формат/Информация : Audio Coding 3
Коммерческое название : Dolby Digital
Идентификатор кодека : A_AC3
Продолжительность : 1 ч. 49 м.
Вид битрейта : Постоянный
Битрейт : 384 Кбит/сек
Каналы : 6 каналов
ChannelLayout : L R C LFE Ls Rs
Частота : 48,0 КГц
Частота кадров : 31,250 кадров/сек (1536 SPF)
Метод сжатия : С потерями
Размер потока : 301 Мбайт (13%)
Заголовок : Original
Язык : English
Default : Нет
Forced : Нет

Текст #1
Идентификатор : 5
Формат : UTF-8
Идентификатор кодека : S_TEXT/UTF8
Идентификатор кодека/Информация : UTF-8 Plain Text
Продолжительность : 1 ч. 40 м.
Битрейт : 1 бит/сек
ElementCount : 32
Размер потока : 1,12 Кбайт (0%)
Заголовок : Forced
Язык : Russian
Default : Да
Forced : Да

Текст #2
Идентификатор : 6
Формат : UTF-8
Идентификатор кодека : S_TEXT/UTF8
Идентификатор кодека/Информация : UTF-8 Plain Text
Продолжительность : 1 ч. 48 м.
Битрейт : 88 бит/сек
ElementCount : 1200
Размер потока : 70,3 Кбайт (0%)
Заголовок : Full
Язык : Russian
Default : Нет
Forced : Нет

Текст #3
Идентификатор : 7
Формат : UTF-8
Идентификатор кодека : S_TEXT/UTF8
Идентификатор кодека/Информация : UTF-8 Plain Text
Продолжительность : 1 ч. 48 м.
Битрейт : 4 бит/сек
ElementCount : 82
Размер потока : 3,33 Кбайт (0%)
Заголовок : Forced
Язык : Ukrainian
Default : Нет
Forced : Нет

Текст #4
Идентификатор : 8
Формат : UTF-8
Идентификатор кодека : S_TEXT/UTF8
Идентификатор кодека/Информация : UTF-8 Plain Text
Продолжительность : 1 ч. 41 м.
Битрейт : 54 бит/сек
ElementCount : 1374
Размер потока : 40,8 Кбайт (0%)
Заголовок : Full
Язык : English
Default : Нет
Forced : Нет

Текст #5
Идентификатор : 9
Формат : UTF-8
Идентификатор кодека : S_TEXT/UTF8
Идентификатор кодека/Информация : UTF-8 Plain Text
Продолжительность : 1 ч. 43 м.
Битрейт : 59 бит/сек
ElementCount : 1544
Размер потока : 45,3 Кбайт (0%)
Заголовок : SDH
Язык : English
Default : Нет
Forced : Нет

Меню
00:00:00.000 : en:00:00:00.000
00:07:26.029 : en:00:07:26.029
00:17:30.091 : en:00:17:30.091
00:26:54.112 : en:00:26:54.112
00:34:31.653 : en:00:34:31.653
00:43:15.843 : en:00:43:15.843
00:52:14.340 : en:00:52:14.340
01:00:50.772 : en:01:00:50.772
01:08:18.177 : en:01:08:18.177
01:17:54.712 : en:01:17:54.712
01:27:05.720 : en:01:27:05.720
01:36:41.838 : en:01:36:41.838
01:45:10.179 : en:01:45:10.179

pb.wtf



Скачать Хороший лжец через торрент https://i111.fastpic.ru/big/2020/0131/cc/2239eedd60e8196b69a9c3f654e4d3cc.jpg Скачать фильм Хороший лжец через торрент бесплантно в хорошем качестве Описание: Профессиональный мошенник Рой Кортни едва верит своей удаче, когда знакомится в сети с богатой вдовой Бетти Маклиш. Очаровав ... 10 10 12
Торрент: Зарегистрирован [2020-01-31 05:37] · скачан: 621 раз
Статус: √ проверено
Размер: 2.22 GB
Как cкачать? Как скачать Хороший лжец через торрент | qTorrent

% Раздел Тема Автор DL S | L
Фильмы 2019-2020 [DVDrip, WEB-DLRip, HDrip] (DUB, MVO) [ 1.46 GB ] Хороший лжец / The Good Liar [2019 BDRip] - [] Twi7ter Скачать
12 | 0
Фильмы 2019-2020 [DVDrip, WEB-DLRip, HDrip] (DUB, MVO) [ 751 MB ] Хороший лжец / The Good Liar [2019 BDRip] DUB [ BD EUR] bober100 Скачать
1 | 0
Фильмы (Blu-ray, BD-Remux, HDDVD) [ 28.23 GB ] Хороший лжец / The Good Liar [2019 BD Remux 1080p] DUB [] bober100 Скачать
2 | 0
Фильмы [HD 720p, 1080p] (Хороший звук DUB, MVO) [ 10.82 GB ] Хороший лжец / The Good Liar [2019 BDRip 1080p] DUB [] bober100 Скачать
3 | 0
Фильмы [HD 720p, 1080p] (Хороший звук DUB, MVO) [ 5.84 GB ] Хороший лжец / The Good Liar [2019 BDRip 720p] DUB [] bober100 Скачать
2 | 0
Фильмы 2019-2020 [DVDrip, WEB-DLRip, HDrip] (DUB, MVO) [ 1.46 GB ] Хороший лжец / The Good Liar [2019 BDRip] DUB [ BD EUR] bober100 Скачать
1 | 0

28-11-2019 20:33  

Отключить всю рекламу на сайте

    Дорогой пользователь! Огромная просьба, поблагодарите релизера, оцените раздачу и оставьте свои комментарий, если Вы скачали Хороший лжец через торрент бесплатно! Внесите свою лепту в развитие PiratBit!
    Комментировать посты могут только пользователи прошедшие не сложную регистрацию
    Показать сообщения:    

    Хороший лжец через торрент
    Скачать бесплатно Хороший лжец
    Хороший лжец скачать торрент
    Хороший лжец смотреть онлайн
    Cкачать фильм Хороший лжец бесплатно
    Хороший лжец скачать торрент в хорошем качестве
    Хороший лжец смотреть онлайн бесплатно в хорошем качестве


    Вы не можете начинать темы
    Вы не можете отвечать на сообщения
    Вы не можете редактировать свои сообщения
    Вы не можете удалять свои сообщения
    Вы не можете голосовать в опросах
    Вы не можете прикреплять файлы к сообщениям
    Вы можете скачивать файлы