2 сезон

iTunes

1 сезон

1

iTunes

iTunes

iTunes

1 сезон

RePack

30

ИГРА 18+

pack

ВАЖНО

!!Акция!!

Alien_RageХит недели

RePack

MK11
pack

Забери бонус

RePack

jed

!!Акция!!

Alien_Rage

RePack

fifa19

RePack

Assassins Creed: Odyssey

RePack

NEED FOR SPEED™ PAYBACK

4 сезон

9 сезон

Бесстыжие 9 сезон

Все сериалы

все сериалы на PB.wtf

RePack

FAR CRY 5
  

Стражи Арктики / Arctic Justice (Аарон Вудли) [2019 г., мультфильм, комедия, приключения, семейный, HDRip, Дубляж "iTunes"] pb.wtf

Стражи Арктики через торрент pb.wtf

Размер: 706 MB | Добавлен: 8 мес. назад | Торрент скачан:68 раз
Скачать  

31-01-2020 18:38 Стражи Арктики Скачать торрент  

Стражи Арктики / Arctic Justice
Год выпуска: 2019
Страна: Индия, Великобритания, Китай, Канада, Япония, Корея Южная, США / AMBI Group, Arctic Justice Movie, Assemblage Entertainment
Жанр: мультфильм, комедия, приключения, семейный
Продолжительность: 01:32:53
Перевод: Дубляж (iTunes)

Режиссер: Аарон Вудли

rating

В ролях: Джереми Реннер, Хайди Клум, Джеймс Франко, Джон Клиз, Омар Си, Лори Холден, Анжелика Хьюстон, Алек Болдуин, Донни Фалсетти, Сорайя Аззаби

Описание: Добро пожаловать на ЗвероПолюс, где Влacть находится в лапах больших, сильных и зубастых. Ради собственного превосходства они готовы переделать под себя весь мир. Лишь маленькие, но очень храбрые встанут на защиту не только родного Северного полюса, но и целой планеты. Именно они - настоящие Стражи Арктики.

Качество: HDRip
Формат: AVI
Видео кодек: DivX
Аудио кодек: MP3
Видео: 640x272 (2.35:1), 23.976 fps, DivX Codec 4.x ~925 kbps avg, 0.22 bit/pixel
Аудио: 48 kHz, MPEG Layer 3, 2 ch, ~128.00 kbps avg
скриншот   скриншот   скриншот   скриншот  

Общее
Полное имя : F:\ФИЛЬМЫ\Стражи Арктики.2019.D.HDRip.avi
Формат : AVI
Формат/Информация : Audio Video Interleave
Размер файла : 706 Мбайт
Продолжительность : 1 ч. 32 м.
Общий поток : 1062 Кбит/сек
Программа кодирования : VirtualDubMod 1.5.10.3 | www.virtualdub-fr.org || (build 2550/release)
Библиотека кодирования : VirtualDubMod build 2550/release

Видео
Идентификатор : 0
Формат : MPEG-4 Visual
Профиль формата : Advanced Simple@L5
Настройки формата : BVOP3 / GMC3 / QPel
Параметр BVOP формата : 3
Параметр QPel формата : Да
Параметр GMC формата : 3 точки перехода
Параметр матрицы формата : Default (MPEG)
Идентификатор кодека : DIVX
Идентификатор кодека/Информация : Project Mayo
Идентификатор кодека/Подсказка : DivX 4
Продолжительность : 1 ч. 32 м.
Битрейт : 925 Кбит/сек
Ширина : 640 пикселей
Высота : 272 пикселя
Соотношение сторон : 2,35:1
Частота кадров : 23,976 (24000/1001) кадра/сек
Цветовое пространство : YUV
Субдискретизация насыщенности : 4:2:0
Битовая глубина : 8 бит
Тип развёртки : Прогрессивная
Метод сжатия : С потерями
Бит/(Пиксели*Кадры) : 0.222
Размер потока : 615 Мбайт (87%)
Библиотека кодирования : XviD 1.2.1 (UTC 2008-12-04)

Аудио
Идентификатор : 1
Формат : MPEG Audio
Версия формата : Version 1
Профиль формата : Layer 3
Настройки формата : Joint stereo
Идентификатор кодека : 55
Идентификатор кодека/Подсказка : MP3
Продолжительность : 1 ч. 32 м.
Вид битрейта : Постоянный
Битрейт : 128 Кбит/сек
Каналы : 2 канала
Частота : 48,0 КГц
Частота кадров : 41,667 кадра/сек (1152 SPF)
Метод сжатия : С потерями
Размер потока : 84,9 Мбайт (12%)
Выравнивание : Соединение по промежуткам
Продолжительность промежутка : 42 мс. (1,00 видеокадр)
Время предзагрузки промежутка : 504 мс.
Библиотека кодирования : LAME3.99r
Настройки программы : -m j -V 4 -q 2 -lowpass 17 -b 128

pb.wtf



Скачать Стражи Арктики через торрент http://pic1.kartinco.top/images/12/bfsfu.jpg Скачать фильм Стражи Арктики через торрент бесплантно в хорошем качестве Описание: Добро пожаловать на ЗвероПолюс, где Влacть находится в лапах больших, сильных и зубастых. Ради собственного превосходства они ... 10 10 1
Торрент: Зарегистрирован [2020-01-31 18:38] · скачан: 68 раз
Статус: √ проверено
Размер: 706 MB
Как cкачать? Как скачать Стражи Арктики через торрент | qTorrent

% Раздел Тема Автор DL S | L
Иностранные мультфильмы [ 1.42 GB ] Стражи Арктики / Arctic Justice [2019 мультфильм BDRip] - Twi7ter Скачать
8 | 0
Иностранные мультфильмы [ 1.42 GB ] Стражи Арктики / Arctic Justice [2019 мультфильм BDRip-AVC] bober100 Скачать
1 | 0
Зарубежные Мультфильмы (BDRip 1080p, 720p, Blu-ray, BD-Remux) [ 20.66 GB ] Стражи Арктики / Arctic Justice [2019 мультфильм BD Remux 1080p] DUB bober100 Скачать
1 | 0
Зарубежные Мультфильмы (BDRip 1080p, 720p, Blu-ray, BD-Remux) [ 9.43 GB ] Стражи Арктики / Arctic Justice [2019 мультфильм BDRip 1080p] DUB bober100 Скачать
1 | 0
Иностранные мультфильмы [ 1.42 GB ] Стражи Арктики / Arctic Justice [2019 мультфильм BDRip] bober100 Скачать
1 | 0

28-11-2019 20:33  

Отключить всю рекламу на сайте

    Дорогой пользователь! Огромная просьба, поблагодарите релизера, оцените раздачу и оставьте свои комментарий, если Вы скачали Стражи Арктики через торрент бесплатно! Внесите свою лепту в развитие PiratBit!
    Комментировать посты могут только пользователи прошедшие не сложную регистрацию
    Показать сообщения:    

    Стражи Арктики через торрент
    Скачать бесплатно Стражи Арктики
    Стражи Арктики скачать торрент
    Стражи Арктики смотреть онлайн
    Cкачать фильм Стражи Арктики бесплатно
    Стражи Арктики скачать торрент в хорошем качестве
    Стражи Арктики смотреть онлайн бесплатно в хорошем качестве


    Вы не можете начинать темы
    Вы не можете отвечать на сообщения
    Вы не можете редактировать свои сообщения
    Вы не можете удалять свои сообщения
    Вы не можете голосовать в опросах
    Вы не можете прикреплять файлы к сообщениям
    Вы можете скачивать файлы