Ссылка на приватное зеркало нашего сайта всего за 1$. Внимание количество ограничено!!!

2 сезон

iTunes

1 сезон

1

2 сезон

2 сезон

iTunes

1 сезон

RePack

30

Ultimate

ВАЖНО

ИГРА 18+

pack

RePack

MK11
pack

Забери бонус

RePack

jed

!!Акция!!

Alien_Rage

RePack

fifa19

RePack

Assassins Creed: Odyssey

RePack

NEED FOR SPEED™ PAYBACK

4 сезон

9 сезон

Бесстыжие 9 сезон

Все сериалы

все сериалы на PB.wtf

RePack

FAR CRY 5
  

Малыш Джо / Little Joe (Джессика Хауснер) [2019, фантастика, драма, WEB-DL 720p] DUB [iTunes] pb.wtf

Малыш Джо через торрент pb.wtf

Раздают: 1 [ 0 KB/s ]
Размер: 3.3 GB | Добавлен: 9 мес. назад | Торрент скачан:106 раз
Скачать  

01-02-2020 04:19 Малыш Джо Скачать торрент  

Малыш Джо | Little Joe
Год выпуска: 2019
Страна: Великобритания, Австрия, Германия
Студия: Coop99 Filmproduktion, The Bureau, Essential Filmproduktion GmbH
Жанр: фантастика, драма
Продолжительность: 01:45:17
Перевод: Дублированный | iTunes
Субтитры: Русские (Full), английские

Режиссер: Джессика Хауснер

rating

В ролях: Эмили Бичем, Бен Уишоу, Керри Фокс, Кит Коннор, Феникс Броссар, Лиэнн Бест, Эндрю Раджан, Дэвид Уилмот, Горан Костич, Яна Янежич

Описание: Мать-одиночка Элис, сотрудница отдела по выведению новых видов растений, создаёт необычный цветок - если за ним правильно ухаживать, он делает своего владельца счастливым. Но всё не так просто, и оказывается, что за счастье, даже сиюминутное, придётся заплатить, а цена может оказаться слишком высокой.

Качество: WEB-DL 720p
Формат: MKV

Видео: MPEG-4 AVC, 1280x692, 4101 Kbit/s, 24,000 fps
Аудио: 48 kHz, AC3, 5.1, 384 Kbps | iTunes | RUS |
скриншот  скриншот  скриншот  скриншот  

Общее
Уникальный идентификатор : 141717974453050981833843185626331749059 (0x6A9DE399CF5909CF5327B8EF5ABC1AC3)
Полное имя : D:\Little.Joe.2019.720p.WEB-DL.Rus.TeamHD.mkv
Формат : Matroska
Версия формата : Version 4 / Version 2
Размер файла : 3,30 Гбайт
Продолжительность : 1 ч. 45 м.
Общий поток : 4487 Кбит/сек
Дата кодирования : UTC 2020-01-31 19:26:11
Программа кодирования : mkvmerge v8.5.1 ('Where you lead I will follow') 64bit
Библиотека кодирования : libebml v1.3.3 + libmatroska v1.4.4

Видео
Идентификатор : 1
Формат : AVC
Формат/Информация : Advanced Video Codec
Профиль формата : High@L3.1
Параметр CABAC формата : Нет
Параметр RefFrames формата : 2 кадра
Идентификатор кодека : V_MPEG4/ISO/AVC
Продолжительность : 1 ч. 45 м.
Битрейт : 4101 Кбит/сек
Ширина : 1280 пикселей
Высота : 692 пикселя
Соотношение сторон : 1,85:1
Режим частоты кадров : Постоянный
Частота кадров : 24,000 кадра/сек
Цветовое пространство : YUV
Субдискретизация насыщенности : 4:2:0
Битовая глубина : 8 бит
Тип развёртки : Прогрессивная
Бит/(Пиксели*Кадры) : 0.193
Размер потока : 3,01 Гбайт (91%)
Заголовок : Main Program
Язык : English
Default : Да
Forced : Нет
Цветовой диапазон : Limited
Основные цвета : BT.709
Характеристики трансфера : BT.709
Коэффициенты матрицы : BT.709

Аудио
Идентификатор : 2
Формат : AC-3
Формат/Информация : Audio Coding 3
Расширение режима : CM (complete main)
Параметр Endianness формата : Big
Идентификатор кодека : A_AC3
Продолжительность : 1 ч. 45 м.
Вид битрейта : Постоянный
Битрейт : 384 Кбит/сек
Каналы : 6 каналов
Расположение каналов : Front: L C R, Side: L R, LFE
Частота : 48,0 КГц
Частота кадров : 31,250 кадров/сек (1536 spf)
Метод сжатия : С потерями
Размер потока : 289 Мбайт (9%)
Заголовок : Russian DUB from iTunes Russia DD 5.1
Язык : Russian
Default : Да
Forced : Нет

Меню
00:00:00.000 : en:Глава 1
00:08:21.833 : en:Глава 2
00:16:35.124 : en:Глава 3
00:26:00.124 : en:Глава 4
00:34:57.249 : en:Глава 5
00:43:17.499 : en:Глава 6
00:51:28.665 : en:Глава 7
00:59:56.290 : en:Глава 8
01:08:17.081 : en:Глава 9
01:17:48.331 : en:Глава 10
01:26:06.164 : en:Глава 11
01:35:12.997 : en:Глава 12

pb.wtf



Скачать Малыш Джо через торрент https://img15.lostpic.net/2020/01/31/93c3113cd981e0bca5e2a09958320f5a.jpg Скачать фильм Малыш Джо через торрент бесплантно в хорошем качестве Описание: Мать-одиночка Элис, сотрудница отдела по выведению новых видов растений, создаёт необычный цветок - если за ним правильно ... 10 10 5
Торрент: Зарегистрирован [2020-02-01 04:19] · скачан: 106 раз
Статус: √ проверено
Размер: 3.3 GB
Как cкачать? Как скачать Малыш Джо через торрент | qTorrent

% Раздел Тема Автор DL S | L
Фильмы 2019-2020 [DVDrip, WEB-DLRip, HDrip] (DUB, MVO) [ 746 MB ] Малыш Джо / Little Joe [2019 HDRip] bober100 Скачать
1 | 0
Фильмы [HD 720p, 1080p] (Хороший звук DUB, MVO) [ 3.57 GB ] Малыш Джо / Little Joe [2019 BDRip 720p] bober100 Скачать
1 | 0
Фильмы [HD 720p, 1080p] (Хороший звук DUB, MVO) [ 9.48 GB ] Малыш Джо / Little Joe [2019 BDRip 1080p] bober100 Скачать
1 | 0
Фильмы (Blu-ray, BD-Remux, HDDVD) [ 27.45 GB ] Малыш Джо / Little Joe [2019 BD Remux 1080p] bober100 Скачать
1 | 0
Фильмы (WEB-DL 720p, 1080p) [ 6.34 GB ] Малыш Джо / Little Joe [2019 WEB-DL 1080p] bober100 Скачать
1 | 0
Фильмы 2019-2020 [DVDrip, WEB-DLRip, HDrip] (DUB, MVO) [ 1.46 GB ] Малыш Джо / Little Joe [2019 BDRip] bober100 Скачать
1 | 0

28-11-2019 20:33  

Отключить всю рекламу на сайте

    Дорогой пользователь! Огромная просьба, поблагодарите релизера, оцените раздачу и оставьте свои комментарий, если Вы скачали Малыш Джо через торрент бесплатно! Внесите свою лепту в развитие PiratBit!
    Комментировать посты могут только пользователи прошедшие не сложную регистрацию
    Показать сообщения:    

    Малыш Джо через торрент
    Скачать бесплатно Малыш Джо
    Малыш Джо скачать торрент
    Малыш Джо смотреть онлайн
    Cкачать фильм Малыш Джо бесплатно
    Малыш Джо скачать торрент в хорошем качестве
    Малыш Джо смотреть онлайн бесплатно в хорошем качестве


    Вы не можете начинать темы
    Вы не можете отвечать на сообщения
    Вы не можете редактировать свои сообщения
    Вы не можете удалять свои сообщения
    Вы не можете голосовать в опросах
    Вы не можете прикреплять файлы к сообщениям
    Вы можете скачивать файлы