2 сезон

iTunes

1 сезон

1

iTunes

iTunes

iTunes

1 сезон

RePack

30

ИГРА 18+

pack

ВАЖНО

!!Акция!!

Alien_RageХит недели

RePack

MK11
pack

Забери бонус

RePack

jed

!!Акция!!

Alien_Rage

RePack

fifa19

RePack

Assassins Creed: Odyssey

RePack

NEED FOR SPEED™ PAYBACK

4 сезон

9 сезон

Бесстыжие 9 сезон

Все сериалы

все сериалы на PB.wtf

RePack

FAR CRY 5
  

Кого мы больше любим (Зейнаб Казимова, Ариф Бабаев, Гасан Сеидбейли) [1964, киноальманах, WEB-DLRip-HEVC от AVP Studio] pb.wtf

Кого мы больше любим через торрент pb.wtf

Раздают: 2 [ 0 KB/s ] Качают: 1 [ 0 KB/s ]
Размер: 1.09 GB | Добавлен: 8 мес. назад | Торрент скачан:12 раз
Скачать  

01-02-2020 09:20 Кого мы больше любим Скачать торрент  

Кого мы больше любим
Страна: СССР
Производство: Азербайджанфильм

Жанр: киноальманах
Год выпуска: 1964
Продолжительность: 01:15:08

Перевод: Не требуется
Cубтитры: нет
Оригинальная аудиодорожка: русский

Режиссер: Зейнаб Казимова, Ариф Бабаев, Гасан Сеидбейли

В ролях:
Тамилла Гафарова, Гасан Мамедов, Тамилла Рустамова-Крастыньш, Рена Салимова, Эльхан Касумов, Гамлет Курбанов, Афрасияб Мамедов, Юсиф Велиев, Борис Левкович, Мурад Меликов, Исмаил Эфендиев, Хаял Ахундзаде, Мелик Дадашев, Джейхун (Джейк) Мирзоев, Талят Рахманов, Земфира Садыхова, Фирудин Мехтиев, Джаббар Алиев, Лейла Шихлинская...
Об актёрах подробней

Описание:
Киноальманах посвящен спортсменам. Три новеллы («Через горный лес», «Вершина», Сила притяжения») рассказывают о взаимной выручке, дружбе, общественном долге и становлении характера настоящего человека.

Источник: WEB-DL 720p
Качество видео: WEB-DLRip-HEVC
Формат видео: MKV

Видео: 712->760х570 (4:3), 25,000 fps, H265 ~ 1946 kbps avg, 0.190 bit/pixel
Аудио: 48 kHz, Dolby Digital AC3 2.0, 192 kbps

Раздача от:
Общее
Полное имя : Kogo.my.bolshe.lyubim.1964.WEB-DLRip-HEVC_[New-team]_by_AVP_Studio.mkv
Формат : Matroska
Версия формата : Version 4
Размер файла : 1,09 Гбайт
Продолжительность : 1 ч. 15 м.
Общий поток : 2076 Кбит/сек
Дата кодирования : UTC 2020-02-01 08:40:57
Программа кодирования : mkvmerge v43.0.0 ('The Quartermaster') 64-bit
Библиотека кодирования : libebml v1.3.10 + libmatroska v1.5.2

Видео
Идентификатор : 1
Формат : HEVC
Формат/Информация : High Efficiency Video Coding
Профиль формата : Main@L3@Main
Идентификатор кодека : V_MPEGH/ISO/HEVC
Продолжительность : 1 ч. 15 м.
Битрейт : 1946 Кбит/сек
Ширина : 712 пикселей
Высота : 570 пикселей
Высота оригинала : 570 пикселей
Соотношение сторон : 4:3
Соотношение сторон в оригинале : 4:3
Режим частоты кадров : Постоянный
Частота кадров : 25,000 кадров/сек
Цветовое пространство : YUV
Субдискретизация насыщенности : 4:2:0
Битовая глубина : 8 бит
Бит/(Пиксели*Кадры) : 0.190
Размер потока : 1,02 Гбайт (94%)
Язык : Russian
Default : Да
Forced : Нет

Аудио
Идентификатор : 2
Формат : AAC LC
Формат/Информация : Advanced Audio Codec Low Complexity
Идентификатор кодека : A_AAC-2
Продолжительность : 1 ч. 15 м.
Битрейт : 128 Кбит/сек
Каналы : 2 канала
ChannelLayout : L R
Частота : 48,0 КГц
Частота кадров : 46,875 кадров/сек (1024 SPF)
Метод сжатия : С потерями
Задержка видео : 9 мс.
Размер потока : 68,8 Мбайт (6%)
Язык : Russian
Default : Да
Forced : Нет
pb.wtf



Скачать Кого мы больше любим через торрент http://a.radikal.ru/a07/2002/53/85ea3efbd0c9.png Скачать фильм Кого мы больше любим через торрент бесплантно в хорошем качестве Описание:Киноальманах посвящен спортсменам. Три новеллы («Через горный лес», «Вершина», Сила притяжения») рассказывают о взаимной выручке, ... 5 10 1
Торрент: Зарегистрирован [2020-02-01 09:20] · скачан: 12 раз
Статус: √ проверено
Размер: 1.09 GB
Как cкачать? Как скачать Кого мы больше любим через торрент | qTorrent

% Раздел Тема Автор DL S | L
Кино СССР [ 1.09 GB ] Кого мы больше любим [1964 киноальманах WEB-DLRip-AVC от AVP Studio] AVP Studio Скачать
2 | 1

28-11-2019 20:33  

Отключить всю рекламу на сайте

    Дорогой пользователь! Огромная просьба, поблагодарите релизера, оцените раздачу и оставьте свои комментарий, если Вы скачали Кого мы больше любим через торрент бесплатно! Внесите свою лепту в развитие PiratBit!
    Комментировать посты могут только пользователи прошедшие не сложную регистрацию
    Показать сообщения:    

    Кого мы больше любим через торрент
    Скачать бесплатно Кого мы больше любим
    Кого мы больше любим скачать торрент
    Кого мы больше любим смотреть онлайн
    Cкачать фильм Кого мы больше любим бесплатно
    Кого мы больше любим скачать торрент в хорошем качестве
    Кого мы больше любим смотреть онлайн бесплатно в хорошем качестве


    Вы не можете начинать темы
    Вы не можете отвечать на сообщения
    Вы не можете редактировать свои сообщения
    Вы не можете удалять свои сообщения
    Вы не можете голосовать в опросах
    Вы не можете прикреплять файлы к сообщениям
    Вы можете скачивать файлы