Ссылка на приватное зеркало нашего сайта всего за 1$. Внимание количество ограничено!!!

2 сезон

iTunes

1 сезон

1

iTunes

iTunes

iTunes

1 сезон

RePack

30

ИГРА 18+

pack

ВАЖНО

!!Акция!!

Alien_RageХит недели

RePack

MK11
pack

Забери бонус

RePack

jed

!!Акция!!

Alien_Rage

RePack

fifa19

RePack

Assassins Creed: Odyssey

RePack

NEED FOR SPEED™ PAYBACK

4 сезон

9 сезон

Бесстыжие 9 сезон

Все сериалы

все сериалы на PB.wtf

RePack

FAR CRY 5
  

Во все тяжкие / Breaking Bad / Сезон: 1-5 / Серии 1-62 из 62 (Адам Бернштейн, Брайан Крэнстон) [2008-2013 г., драма, криминал, BDRip (HEVC) 1080p] [DUB] (Selena) pb.wtf

Во все тяжкие через торрент pb.wtf

Раздают: 2 [ 0 KB/s ] Качают: 1 [ 0 KB/s ]
Размер: 65.18 GB | Добавлен: 8 мес. назад | Торрент скачан:108 раз
Скачать  

01-02-2020 16:36 Во все тяжкие Скачать торрент  

Во Все Тяжкие / Breaking Bad
Год выхода: 2008-2013
Выпущено: США
Жанр: драма, криминал
Продолжительность: 62 x ~00:50:00
Перевод: Профессиональный (дублированный) *Selena*
Субтитры: Русские (вшитые, на надписи и испанскую речь)

Режиссер: Адам Бернштейн, Брайан Крэнстон

В ролях: Брайан Крэнстон, Аарон Пол,Анна Ганн, Дин Норрис, Бетси Брандт, Эр Джей, Стивен Майкл Квезада, Джанкарло Эспосито, Боб Оденкирк, Джонатан Бэнкс и др.

Описание:
Основная канва сюжета развивается вокруг школьного учителя химии Уолтера Уайта, который узнаёт, что он болен раком лёгких. Учитывая сложное финансовое состояние дел семьи, а также перспективы (жена Уолтера, Скайлер, беременна вторым ребёнком, а у сына детский паралич), Уолтер решается на аферу по приготовлению наркотика метамфетамина. Для этого привлекается бывший ученик Джесси Пинкман, когда-то исключенный из школы при активном содействии Уолтера, недавно потерявший партнёра по изготовлению наркотика, знающий «бизнес».

rating

Файл:
Качество: BDRip 1080p
Формат: MKV
Кодек: H.265
Видео: ~3000 Кбит/с, 1920x1080, 23.976 кадр/с
Аудио: 48 kHz, AC3 Dolby Digital, 2 ch, ~192.00 kbps avg
General
Unique ID : 192937528000365063003784000458420798219 (0x91266A8FD4E0E6CB9C97A19CA876430B)
Complete name : F:\Во все тяжкие\1 Сезон\01. Пилотная серия.mkv
Format : Matroska
Format version : Version 4 / Version 2
File size : 1.28 GiB
Duration : 58mn 6s
Overall bit rate : 3 144 Kbps
Encoded date : UTC 2017-05-18 12:18:12
Writing application : mkvmerge v9.4.2 ('So High') 64bit
Writing library : libebml v1.3.4 + libmatroska v1.4.5

Video
ID : 1
Format : HEVC
Format/Info : High Efficiency Video Coding
Format profile : Main@L4@Main
Codec ID : V_MPEGH/ISO/HEVC
Duration : 58mn 6s
Bit rate : 2 890 Kbps
Width : 1 920 pixels
Height : 1 080 pixels
Display aspect ratio : 16:9
Frame rate mode : Constant
Frame rate : 23.976 fps
Color space : YUV
Chroma subsampling : 4:2:0
Bit depth : 8 bits
Bits/(Pixel*Frame) : 0.058
Stream size : 1.17 GiB (92%)
Language : English
Default : Yes
Forced : No

Audio
ID : 3
Format : AC-3
Format/Info : Audio Coding 3
Mode extension : CM (complete main)
Format settings, Endianness : Big
Codec ID : A_AC3
Duration : 58mn 6s
Bit rate mode : Constant
Bit rate : 192 Kbps
Channel(s) : 2 channels
Channel positions : Front: L R
Sampling rate : 48.0 KHz
Compression mode : Lossy
Stream size : 79.8 MiB (6%)
Language : Russian
Default : Yes
Forced : No

Text
ID : 2
Format : PGS
Muxing mode : zlib
Codec ID : S_HDMV/PGS
Codec ID/Info : Picture based subtitle format used on BDs/HD-DVDs
Title : rus (force)
Language : Russian
Default : Yes
Forced : No
1 Сезон
1. Pilot / Пилот
2. Cat's in the Bag.../ Кот уже в мешке...
3. ...And the Bag's in the River / А мешок уже в реке
4. Cancer Man / Раковый больной
5. Gray Matter / Серое вещество
6. Crazy Handful of Nothin'/ Блеф на пустой руке
7. A No-Rough-Stuff-Type Deal / Тихий бизнес без суеты и напрягов

2 Сезон
01. Seven Thirty-Seven / Семьсот тридцать семь
02. Grilled / Попандос
03. Bit by a Dead Bee / Укус мертвой пчелы
04. Down / На дне
05. Breakage / Бой товара
06. Peekaboo / Ку-ку
07. Negro Y Azul / Синий мет на черном рынке
08. Better Call Saul / Надо звонить Солу!
09. 4 Days Out / 4 дня на природе
10. Over / Всё
11. Mandala / Мандала
12. Phoenix / Феникс
13. ABQ / АБК

3 Сезон
01. No Mas / Баста
02. Caballo sin nombre / Конь без клички
03. I.F.T. / Я.Т.Т.
04. Green Light / Зеленый цвет
05. Mas / По новой
06. Sunset / На закате
07. One Minute / Одна минута
08. I See You / Я тебя вижу
09. Kafkaesque / По-кафкиански
10. Fly / Муха
11. Abiquiu / Абикиу
12. Half Measures / Полумеры
13. Full Measure / Полная мера

4 Сезон
01. Box Cutter / Канцелярский нож
02. Thirty-Eight Snub / Тридцать восьмой, курносый
03. Open House / День открытых дверей
04. Bullet Points / Ключевые моменты
05. Shotgun / Боец
06. Cornered / В углу
07. Problem Dog / Проблемный пёс
08. Hermanos / Братья
09. Bug / Жучок
10. Salud
11. Crawl Space / Подпол
12. End Times / Конец света
13. Face Off / Кто кого

5 Сезон
01. Живи свободным или умри / Live Free or Die
02. Мадригал / Madrigal
03. Опасные условия / Hazard Pay
04. Пятьдесят один / Fifty-One
05. Мёртвый груз / Dead Freight
06. Выкуп / Buyout
07. Произнеси моё имя / Say My Name
08. Летящий над всем / Gliding Over All
09. Кровавые деньги / Blood Money
10. Зарытое / Buried
11. Признания / Confessions
12. Бешеный пёс / Rabid Dog
13. Тохаджили / To'hajiilee
14. Озимандия / Ozymandias
15. Гранитный штат / Granite State
16. Фелина / Felina
скриншот  скриншот  скриншот  
pb.wtf



Скачать Во все тяжкие через торрент http://img11.lostpic.net/2017/05/20/e80f5c81ee30e7b4dc6caf6ba726b353.png Скачать фильм Во все тяжкие через торрент бесплантно в хорошем качестве Описание:Основная канва сюжета развивается вокруг школьного учителя химии Уолтера Уайта, который узнаёт, что он болен раком лёгких. ... 10 10 7
Info! Золотая раздача, скачанное не засчитывается.
Торрент: Зарегистрирован [2020-02-01 16:36] · скачан: 108 раз
Статус: √ проверено
Размер: 65.18 GB
Как cкачать? Как скачать Во все тяжкие через торрент | qTorrent

% Раздел Тема Автор DL S | L
Во все тяжкие [ 253.45 GB ] Во все тяжкие / Breaking Bad / Сезон: 1-5 / Серии: 1-62 из 62 [2008-2013 BDRip 1080p] DVO [Кубик в Кубе] bober100 Скачать
2 | 0
Во все тяжкие [ 70.47 GB ] Во все тяжкие / Breaking Bad / сезон 1-5 [2008-2013 BDRip-AVC] MVO AARRSSEENN Скачать
1 | 1

28-11-2019 20:33  

Отключить всю рекламу на сайте

    Дорогой пользователь! Огромная просьба, поблагодарите релизера, оцените раздачу и оставьте свои комментарий, если Вы скачали Во все тяжкие через торрент бесплатно! Внесите свою лепту в развитие PiratBit!
    Комментировать посты могут только пользователи прошедшие не сложную регистрацию
    Показать сообщения:    

    Во все тяжкие через торрент
    Скачать бесплатно Во все тяжкие
    Во все тяжкие скачать торрент
    Во все тяжкие смотреть онлайн
    Cкачать фильм Во все тяжкие бесплатно
    Во все тяжкие скачать торрент в хорошем качестве
    Во все тяжкие смотреть онлайн бесплатно в хорошем качестве


    Вы не можете начинать темы
    Вы не можете отвечать на сообщения
    Вы не можете редактировать свои сообщения
    Вы не можете удалять свои сообщения
    Вы не можете голосовать в опросах
    Вы не можете прикреплять файлы к сообщениям
    Вы можете скачивать файлы