Ссылка на приватное зеркало всего за 1$. Внимание количество ограничено!!!

iTunes

1+1

iTunes

мы

MV0

1

WEB-DLRip

Джокер

Пифагор

Ведьмак / The Witcher сериал

iTunes

ПШазам

iTunes

Оно 2

iTunes

30
pack

Вам бонус

ВАЖНО

!!Акция!!

Alien_RageХит недели

RePack

Resident Evil 21

ИГРА 18+

pack

RePack

jed

!!Акция!!

Alien_Rage

RePack

fifa19

RePack

Assassins Creed: Odyssey

RePack

NEED FOR SPEED™ PAYBACK

4 сезон

9 сезон

Бесстыжие 9 сезон

Все сериалы

все сериалы на PB.wtf

RePack

FAR CRY 5
  

Мустанг / The Mustang (Лор де Клермон-Тоннер) [2019 г., Драма, BDRip 1080p] [MVO] (Чистый звук) pb.wtf

Мустанг через торрент pb.wtf

Раздают: 3 [ 511 KB/s ]
Размер: 9.69 GB | Добавлен: 17 д. назад | Торрент скачан:59 раз
Скачать  

01-02-2020 19:13 Мустанг Скачать торрент  

Мустанг / The Mustang
Год выпуска: 2019
Страна: Франция, Бельгия
Жанр: Драма
Продолжительность: 01:36:14
Перевод: Профессиональный (многоголосый, закадровый) / Чистый звук
Субтитры: Русские, английские

Режиссер: Лор де Клермон-Тоннер

Премьера в мире: 31 января 2019

rating

В ролях: Маттиас Шонартс, Джейсон Митчелл, Брюс Дерн, Гидеон Адлон, Конни Бриттон, Джош Стюарт, Томас Смитл, Кейт Джонсон, Ноэль Гульеми, Джеймс Макфарланд

Описание: Осуждённый преступник Роман Коулман, отбывающий срок в тюрьме Невады, вынужден участвовать в реабилитационной программе по приручению мустангов. Неожиданно для себя он привязывается к самой неукротимой лошади, которая помогает ему бороться с собственными демонами.

Качество: BDRip 1080p
Формат: MKV
Видео кодек: MPEG4
Видео: MPEG-4 AVC, 1800x1080, 13,7 Мбит/с
Аудио#1: 48 kHz, AC3, 2 ch, 192 Кбит/с / RUS
Аудио#2: 48 kHz, AC3, 6 ch, 448 Кбит/с / ENG
скриншот  скриншот  скриншот  скриншот  

General
Общее
Уникальный идентификатор : 193988567694261966826027728564375642574 (0x91F0D6D1D23816D29AC186297B25E1CE)
Полное имя : G:Torrent2MustangBDRip1080p.mkv
Формат : Matroska
Версия формата : Version 4 / Version 2
Размер файла : 9,69 Гбайт
Продолжительность : 1 ч. 36 м.
Общий поток : 14,4 Мбит/сек
Дата кодирования : UTC 2020-02-01 15:02:23
Программа кодирования : mkvmerge v9.5.0 ('Quiet Fire') 64bit
Библиотека кодирования : libebml v1.3.4 + libmatroska v1.4.5

Видео
Идентификатор : 1
Формат : AVC
Формат/Информация : Advanced Video Codec
Профиль формата : High@L4.1
Настройки формата : CABAC / 4 Ref Frames
Параметр CABAC формата : Да
Параметр RefFrames формата : 4 кадра
Идентификатор кодека : V_MPEG4/ISO/AVC
Продолжительность : 1 ч. 36 м.
Битрейт : 13,8 Мбит/сек
Ширина : 1800 пикселей
Высота : 1080 пикселей
Соотношение сторон : 5:3
Режим частоты кадров : Постоянный
Частота кадров : 23,976 (23976/1000) кадра/сек
Цветовое пространство : YUV
Субдискретизация насыщенности : 4:2:0
Битовая глубина : 8 бит
Тип развёртки : Прогрессивная
Бит/(Пиксели*Кадры) : 0.296
Размер потока : 9,26 Гбайт (96%)
Заголовок : Sisendrovich(R)
Библиотека кодирования : x264 core 159 r2991 1771b55
Настройки программы : cabac=1 / ref=4 / deblock=1:-1:-1 / analyse=0x3:0x133 / me=tesa / subme=11 / psy=1 / psy_rd=1.00:0.00 / mixed_ref=1 / me_range=32 / chroma_me=1 / trellis=2 / 8x8dct=1 / cqm=0 / deadzone=21,11 / fast_pskip=0 / chroma_qp_offset=-2 / threads=24 / lookahead_threads=6 / sliced_threads=0 / nr=0 / decimate=0 / interlaced=0 / bluray_compat=0 / constrained_intra=0 / bframes=10 / b_pyramid=2 / b_adapt=2 / b_bias=0 / direct=3 / weightb=1 / open_gop=0 / weightp=2 / keyint=240 / keyint_min=23 / scenecut=40 / intra_refresh=0 / rc_lookahead=60 / rc=2pass / mbtree=0 / bitrate=13774 / ratetol=1.0 / qcomp=0.70 / qpmin=0 / qpmax=69 / qpstep=4 / cplxblur=20.0 / qblur=0.5 / vbv_maxrate=50000 / vbv_bufsize=62500 / nal_hrd=none / filler=0 / ip_ratio=1.40 / pb_ratio=1.30 / aq=3:0.90 / zones=52035,55388,q=18
Язык : English
Default : Да
Forced : Нет

Аудио #1
Идентификатор : 2
Формат : AC-3
Формат/Информация : Audio Coding 3
Параметр Endianness формата : Big
Идентификатор кодека : A_AC3
Продолжительность : 1 ч. 36 м.
Вид битрейта : Постоянный
Битрейт : 192 Кбит/сек
Каналы : 2 канала
Расположение каналов : Front: L R
Частота : 48,0 КГц
Частота кадров : 31,250 кадров/сек (1536 SPF)
Битовая глубина : 16 бит
Метод сжатия : С потерями
Размер потока : 132 Мбайт (1%)
Заголовок : rus
Язык : Russian
Default : Да
Forced : Нет

Аудио #2
Идентификатор : 3
Формат : AC-3
Формат/Информация : Audio Coding 3
Параметр Endianness формата : Big
Идентификатор кодека : A_AC3
Продолжительность : 1 ч. 36 м.
Вид битрейта : Постоянный
Битрейт : 448 Кбит/сек
Каналы : 6 каналов
Расположение каналов : Front: L C R, Side: L R, LFE
Частота : 48,0 КГц
Частота кадров : 31,250 кадров/сек (1536 SPF)
Битовая глубина : 16 бит
Метод сжатия : С потерями
Размер потока : 308 Мбайт (3%)
Заголовок : eng
Язык : English
Default : Нет
Forced : Нет

Текст #1
Идентификатор : 4
Формат : UTF-8
Идентификатор кодека : S_TEXT/UTF8
Идентификатор кодека/Информация : UTF-8 Plain Text
Продолжительность : 1 ч. 31 м.
Битрейт : 62 бит/сек
ElementCount : 811
Размер потока : 41,7 Кбайт (0%)
Заголовок : rusFull
Язык : Russian
Default : Нет
Forced : Нет

Текст #2
Идентификатор : 5
Формат : UTF-8
Идентификатор кодека : S_TEXT/UTF8
Идентификатор кодека/Информация : UTF-8 Plain Text
Продолжительность : 1 ч. 24 м.
Битрейт : 40 бит/сек
ElementCount : 811
Размер потока : 25,1 Кбайт (0%)
Заголовок : engFull
Язык : English
Default : Нет
Forced : Нетpb.wtf



Скачать Мустанг через торрент http://pic1.kartinco.top/images/12/xaszs.jpg Скачать фильм Мустанг через торрент бесплантно в хорошем качестве Описание: Осуждённый преступник Роман Коулман, отбывающий срок в тюрьме Невады, вынужден участвовать в реабилитационной программе по ... 8.7 10 3
Info! Золотая раздача, скачанное не засчитывается.
Торрент: Зарегистрирован [2020-02-01 19:13] · скачан: 59 раз
Статус: x закрыто
Размер: 9.69 GB
Как cкачать? Как скачать Мустанг через торрент | qTorrent

% Раздел Тема Автор DL S | L
T Фильмы 2019-2020 [DVDrip, WEB-DLRip, HDrip] (DUB, MVO) [ 1.45 GB ] Мустанг / The Mustang [2019 BDRip] [MVO] [Онлайн кинотеатр] killermax2013 Скачать
11 | 1
T Фильмы [HD 720p, 1080p] (Хороший звук DUB, MVO) [ 4.31 GB ] Мустанг / The Mustang [2019 BDRip 720p] [MVO] [Онлайн кинотеатр] killermax2013 Скачать
4 | 0
T Фильмы (мультфильмы) cо спонсором показа (Новинки AVI/MKV) [ 3.79 GB ] История о мустанге и покорной женщине / The Mustanger and the Lady [2017 WEB-DL 720p] MVO ["Синема УС"] bober100 Скачать
1 | 0
T Фильмы (мультфильмы) cо спонсором показа (Новинки AVI/MKV) [ 1.36 GB ] История о мустанге и покорной женщине / The Mustanger and the Lady [2017 WEB-DLRip] MVO ["Синема УС"] bober100 Скачать
1 | 0

28-11-2019 20:33  

Отключить всю рекламу на сайте

12-02-2020 14:43 Мустанг Скачать торрент  

Топик был перенесен из форума Фильмы [HD 720p, 1080p] (Хороший звук DUB, MVO) в форум Оформление раздач (Кино, Видео и ТВ)


bober100pb.wtf



15-02-2020 12:41 Мустанг Скачать торрент  

Топик был перенесен из форума Оформление раздач (Кино, Видео и ТВ) в форум Для поглощённых раздач

Причина переноса: недооформлено
bober100pb.wtf



    Дорогой пользователь! Огромная просьба, поблагодарите релизера, оцените раздачу и оставьте свои комментарий, если Вы скачали Мустанг через торрент бесплатно! Внесите свою лепту в развитие PiratBit!
    Комментировать посты могут только пользователи прошедшие не сложную регистрацию
    Показать сообщения:    

    Мустанг через торрент
    Скачать бесплатно Мустанг
    Мустанг скачать торрент
    Мустанг смотреть онлайн
    Cкачать фильм Мустанг бесплатно
    Мустанг скачать торрент в хорошем качестве
    Мустанг смотреть онлайн бесплатно в хорошем качестве


    Вы не можете начинать темы
    Вы не можете отвечать на сообщения
    Вы не можете редактировать свои сообщения
    Вы не можете удалять свои сообщения
    Вы не можете голосовать в опросах
    Вы не можете прикреплять файлы к сообщениям
    Вы можете скачивать файлы