Anonymous, доброй ночи, присоединяйтесь к нам в Telegram!, здесь всегда актуальный адрес сайта, оперативная поддержка и многое другое!

>

5.5

iTunes

7.4

iTunes

7.9

iTunes

1

7.7

1 сезон

6.8

iTunes

7.3

1 сезон

13

6.7

1 сезон

8.3

RePack

30

ULTIMATE

pack

9.9

Лицензия

ВАЖНО

ИГРА 18+

pack

7.3

RePack

MK11

7.7

RePack

jed

7.8

RePack

fifa19

8.5

RePack

RDR2

RePack

NEED FOR SPEED™ PAYBACK

4 сезон

9 сезон

Бесстыжие 9 сезон

Все сериалы

все сериалы на PB.wtf

RePack

FAR CRY 5

Anonymous, доброй ночи, мы катастрофически не успеваем собрать деньги на оплату серверов, помогите нам пожалуйста 5,10,15р., для нас важна любая помощь . В качестве благодарности мы отключим Вам всю рекламу на сайте (укажите свой ник в строку Ваше имя)!

×
  
Magnet ссылка

Война семей / Сезон: 1 / Серии: 1-20 из 20 (Илья Фарфель, Евгений Корчагин) [2020, Комедия, WEB-DL 1080p] pb.wtf

Война семей через торрент pb.wtf

Раздают: 1 [ 13 KB/s ]
Размер: 15.4 GB | Добавлен: 1 год 7 мес. назад | Торрент скачан:208 раз
Смотреть онлайн Война семей | Скачать    Ребята, помогите собрать деньги на оплату серверов!!!

02-02-2020 01:52 Война семей Скачать торрент  

Война семей
Год выпуска: 2020
Страна: Россия
Жанр: Комедия
Продолжительность: ~ 00:23:00 серия
Перевод: Не требуется
Субтитры: отсутствуют

Режиссер: Илья Фарфель, Евгений Корчагин



В ролях: Егор Бероев, Александр Робак, Ольга Медынич, Светлана Колпакова, Арина Постникова, Арам Вардеванян, Пелагея Невзорова, Александра Флоринская, Алиса Клагиш, Джемал Тетруашвили, Любовь Тищенко (II), Юлия Томашевская, Юрий Скулябин, Елизавета Мазалова

Описание: Миша и Дима – друзья с детства. Общий бизнес, соседние дома без забора, дружба семьями – идиллия, которою, как казалось, невозможно разрушить. Грядущая свадьба детей должна была укрепить многолетний союз. Однако во время семейного торжества неожиданно вскрываются тайны, которые в один миг превращают лучших друзей в заклятых врагов.

Качество: WEB-DL 1080p
Формат: MKV

Видео: MPEG4 AVC Video, H264, 16:9, 1920x1072, 25 fps, ~4500 kbps, 0.085 bit/pixel
Аудио: AC3 Dolby Digital, 48.0 kHz, 2/0 (L,R) ch, 192 kbps
скриншот  скриншот  скриншот  скриншот  

Общее
Уникальный идентификатор : 231643233483638618232025279136722623965 (0xAE44DD2DAAE833F9B7F2489C03749DDD)
Полное имя : D:\Voyna.semey.2019.WEB-DL.(1080p).Getty\Voyna.semey.e01-02.2019.WEB-DL.(1080p).Getty.mkv
Формат : Matroska
Версия формата : Version 4 / Version 2
Размер файла : 1,48 Гбайт
Продолжительность : 45 м. 17 с.
Режим общего битрейта : Переменный
Общий поток : 4665 Кбит/сек
Название фильма : Voyna.semey.e01-02.2019.WEB-DL.(1080p).Getty
Дата кодирования : UTC 2020-02-07 15:38:26
Программа кодирования : mkvmerge v7.8.0 ('River Man') 32bit built on Mar 27 2015 16:18:02
Библиотека кодирования : libebml v1.3.1 + libmatroska v1.4.2

Видео
Идентификатор : 1
Формат : AVC
Формат/Информация : Advanced Video Codec
Профиль формата : High@L4
Параметр CABAC формата : Да
Параметр RefFrames формата : 1 кадр
Параметр GOP формата : M=1, N=50
Идентификатор кодека : V_MPEG4/ISO/AVC
Продолжительность : 45 м. 17 с.
Вид битрейта : Переменный
Битрейт : 4480 Кбит/сек
Максимальный битрейт : 4500 Кбит/сек
Ширина : 1920 пикселей
Высота : 1072 пикселя
Соотношение сторон : 16:9
Режим частоты кадров : Постоянный
Частота кадров : 25,000 кадров/сек
Цветовое пространство : YUV
Субдискретизация насыщенности : 4:2:0
Битовая глубина : 8 бит
Тип развёртки : Прогрессивная
Бит/(Пиксели*Кадры) : 0.085
Размер потока : 1,39 Гбайт (94%)
Default : Да
Forced : Нет

Аудио
Идентификатор : 2
Формат : AC-3
Формат/Информация : Audio Coding 3
Расширение режима : CM (complete main)
Параметр Endianness формата : Big
Идентификатор кодека : A_AC3
Продолжительность : 45 м. 17 с.
Вид битрейта : Постоянный
Битрейт : 192 Кбит/сек
Каналы : 2 канала
Расположение каналов : Front: L R
Частота : 48,0 КГц
Частота кадров : 31,250 кадров/сек (1536 spf)
Метод сжатия : С потерями
Размер потока : 62,2 Мбайт (4%)
Default : Да
Forced : Нет

Когда раздача ведётся путём добавления новых серий, при каждом добавлении создётся новый торрент. Чтобы начать докачку новой серии, пользователям необходимо сделать следующее:
(1) остановить скачивание,
(2) удалить старый торрент у себя из клиента (старые серии удалять не надо),
(3) скачать новый торрент и запустить его у себя в клиенте вместо старого, при этом указать клиенту путь в старую папку, куда и должно происходить скачивание новых серий.
Ваш клиент при этом должен произвести хеширование (проверку) старой папки (если не производит сам - помогите ему сделать это), и будет докачивать только те серии, которых у вас ещё нет. Старые серии при этом не удаляются, а продолжают раздаваться!
Eсли вы уже удалили старые серии, то предотвратить повторную закачку старых серий можно, отжав галочку в соответсвующих местах при запуске нового торрента. По возможности, желательно не удалять старые серии как можно дольше, чтобы релизёр не столько продолжал раздавать старые серии, а смог сконцентрироваться на новых.
pb.wtf



Скачать Война семей через торрент https://img15.lostpic.net/2020/02/02/dad6c1a76856d13c09a1c565697dfe3e.jpg Скачать, смотреть онлайн Война семей бесплантно в хорошем качестве Описание: Миша и Дима – друзья с детства. Общий бизнес, соседние дома без забора, дружба семьями – идиллия, которою, как казалось, ... 9.9 10 24
Торрент: Зарегистрирован [2020-03-04 09:37] · скачан: 208 раз
Статус: √ проверено
Размер: 15.4 GB
Как cкачать? Как скачать Война семей через торрент | UTorrent

% Раздел Тема Автор DL S | L
Наши сериалы [ 21.83 GB ] Война семей / Сезон: 2 / Серии: 1-20 из 20 [2021 WEBRip 1080p] bober100 Скачать
2 | 0
Наши сериалы [ 6.84 GB ] Война семей / Сезон: 2 / Серии: 1-20 из 20 [2021 WEBRip] bober100 Скачать
4 | 1
Наши сериалы [ 5.91 GB ] Война семей / Сезон: 2 / Серии: 1-20 из 20 [2021 WEBRip-AVC] bober100 Скачать
2 | 0
Наши сериалы [ 10.44 GB ] Война семей / Сезон: 2 / Серии: 1-20 из 20 [2021 WEBRip 720p] bober100 Скачать
2 | 1
TNT serials [ 7.2 GB ] Война семей / Сезон: 1 / Серии: 1-20 из 20 [2020 WEB-DLRip-AVC] bober100 Скачать
3 | 0
TNT serials [ 9.96 GB ] Война семей / Сезон: 1 / Серии: 1-20 из 20 [2020 WEB-DL 720p] bober100 Скачать
1 | 0
TNT serials [ 5.86 GB ] Война семей / Сезон: 1 / Серии: 1-20 из 20 [2020 WEB-DLRip] bober100 Скачать
1 | 0

28-11-2019 20:33  

Отключить всю рекламу на сайте

    Дорогой пользователь! Огромная просьба, поблагодарите релизера, оцените раздачу и оставьте свои комментарий, если Вы скачали Война семей через торрент бесплатно!
    Комментировать посты могут только пользователи прошедшие не сложную регистрацию
    Показать сообщения:    

    Война семей через торрент
    Скачать бесплатно Война семей
    Война семей скачать торрент
    Война семей смотреть онлайн
    Cкачать фильм Война семей бесплатно
    Война семей скачать торрент в хорошем качестве
    Война семей смотреть онлайн бесплатно в хорошем качестве


    Вы не можете начинать темы
    Вы не можете отвечать на сообщения
    Вы не можете редактировать свои сообщения
    Вы не можете удалять свои сообщения
    Вы не можете голосовать в опросах
    Вы не можете прикреплять файлы к сообщениям
    Вы можете скачивать файлы