2 сезон

iTunes

MVO

1

2 сезон

iTunes

iTunes

1 сезон

RePack

30

Ultimate

ВАЖНО

ИГРА 18+

pack

RePack

MK11
pack

Легкие деньги

RePack

jed

RePack

fifa19

RePack

RDR2

RePack

NEED FOR SPEED™ PAYBACK

4 сезон

9 сезон

Бесстыжие 9 сезон

Все сериалы

все сериалы на PB.wtf

RePack

FAR CRY 5

Anonymous, доброй ночи, мы не успеваем собрать деньги на оплату серверов за декабрь и январь, помогите нам пожалуйста в это трудное время. В качестве благодарности мы отключим Вам всю рекламу на сайте (укажите свой ник в строку Ваше имя)!

×
  
Magnet ссылка

Гемини / Gemini Man (Энг Ли) [2019, фантастика, боевик, триллер, драма, UHD BDRip 1080p, (60 fps)] DUB [Лицензия] pb.wtf

Гемини через торрент pb.wtf

Размер: 10.85 GB | Добавлен: 11 мес. назад | Торрент скачан:422 раза
Скачать  

02-02-2020 06:22 Гемини Скачать торрент  

Гемини | Gemini Man
Год выпуска: 2019
Страна: Китай, США
Студия: Skydance Media, Jerry Bruckheimer Films, Fosun Group Forever Pictures
Жанр: фантастика, боевик, триллер, драма
Продолжительность: 01:57:00
Перевод: Дублированный | Лицензия
Субтитры: Русские (Forced, Full), английские

Режиссер: Энг Ли

rating

В ролях: Уилл Смит, Мэри Элизабет Уинстэд, Клайв Оуэн, Бенедикт Вонг, Дуглас Ходж, Теодора Вулли, Ральф Браун, Линда Эмонд, Андреа Суч, Илья Волох

Описание: Генри Броган, первоклассный киллер, становится мишенью таинственного оперативника, который, кажется, знает каждый его шаг наперед...

Качество: UHD BDRip 1080p | 60 fps
Формат: MKV

Видео: MPEG-4 AVC, 1920x1038, 12.0 Mbit/s, 59.940 fps
Аудио #01: 48 kHz, AC3, 5.1, 640 Kbps | Дублированный | RUS |
Аудио #02: 48 kHz, AC3, 5.1, 640 Kbps | Оригинал | ENG |
скриншот  скриншот  скриншот  скриншот  скриншот  

General
Unique ID : 151574751751085517792747497044558571739 (0x72083C3E000C05D65E5DF3A3471168DB)
Complete name : E:Video111Gemini.Man.2019.HRF.60fps.UHD.BDRip.1080p.seleZen.mkv
Format : Matroska
Format version : Version 4
File size : 10.9 GiB
Duration : 1 h 57 min
Overall bit rate : 13.3 Mb/s
Movie name : Gemini Man 2019 from селезень
Encoded date : UTC 2020-02-01 19:54:26
Writing application : mkvmerge v40.0.0 ('Old Town Road + Pony') 64-bit
Writing library : libebml v1.3.9 + libmatroska v1.5.2

Video
ID : 1
Format : AVC
Format/Info : Advanced Video Codec
Format profile : High@L4.1
Format settings : CABAC / 4 Ref Frames
Format settings, CABAC : Yes
Format settings, Reference : 4 frames
Codec ID : V_MPEG4/ISO/AVC
Duration : 1 h 57 min
Bit rate : 12.0 Mb/s
Width : 1 920 pixels
Height : 1 038 pixels
Display aspect ratio : 1.85:1
Frame rate mode : Constant
Frame rate : 59.940 (60000/1001) FPS
Color space : YUV
Chroma subsampling : 4:2:0
Bit depth : 8 bits
Scan type : Progressive
Bits/(Pixel*Frame) : 0.100
Stream size : 9.80 GiB (90%)
Title : Encoded by seleZen
Writing library : x264 core 159 r2991 1771b55
Encoding settings : cabac=1 / ref=4 / deblock=1:-2:-2 / analyse=0x3:0x133 / me=umh / subme=10 / psy=1 / psy_rd=1.00:0.00 / mixed_ref=1 / me_range=32 / chroma_me=1 / trellis=2 / 8x8dct=1 / cqm=0 / deadzone=21,11 / fast_pskip=0 / chroma_qp_offset=-2 / threads=24 / lookahead_threads=4 / sliced_threads=0 / nr=0 / decimate=0 / interlaced=0 / bluray_compat=0 / constrained_intra=0 / bframes=8 / b_pyramid=2 / b_adapt=2 / b_bias=0 / direct=3 / weightb=1 / open_gop=0 / weightp=2 / keyint=600 / keyint_min=60 / scenecut=40 / intra_refresh=0 / rc_lookahead=60 / rc=2pass / mbtree=0 / bitrate=12000 / ratetol=1.0 / qcomp=0.60 / qpmin=0 / qpmax=51 / qpstep=4 / cplxblur=20.0 / qblur=0.5 / vbv_maxrate=50000 / vbv_bufsize=62500 / nal_hrd=none / filler=0 / ip_ratio=1.40 / pb_ratio=1.30 / aq=3:0.80
Default : Yes
Forced : No
Color range : Limited
Color primaries : BT.709
Transfer characteristics : BT.709
Matrix coefficients : BT.709

Audio #1
ID : 2
Format : AC-3
Format/Info : Audio Coding 3
Commercial name : Dolby Digital
Codec ID : A_AC3
Duration : 1 h 57 min
Bit rate mode : Constant
Bit rate : 640 kb/s
Channel(s) : 6 channels
Channel layout : L R C LFE Ls Rs
Sampling rate : 48.0 kHz
Frame rate : 31.250 FPS (1536 SPF)
Compression mode : Lossy
Stream size : 536 MiB (5%)
Title : Dub [License]
Language : Russian
Service kind : Complete Main
Default : Yes
Forced : Yes

Audio #2
ID : 3
Format : AC-3
Format/Info : Audio Coding 3
Commercial name : Dolby Digital
Codec ID : A_AC3
Duration : 1 h 57 min
Bit rate mode : Constant
Bit rate : 640 kb/s
Channel(s) : 6 channels
Channel layout : L R C LFE Ls Rs
Sampling rate : 48.0 kHz
Frame rate : 31.250 FPS (1536 SPF)
Compression mode : Lossy
Stream size : 536 MiB (5%)
Title : Original
Language : English
Service kind : Complete Main
Default : No
Forced : No

Text #1
ID : 4
Format : UTF-8
Codec ID : S_TEXT/UTF8
Codec ID/Info : UTF-8 Plain Text
Duration : 1 h 55 min
Bit rate : 0 b/s
Count of elements : 16
Stream size : 581 Bytes (0%)
Title : Forced
Language : Russian
Default : Yes
Forced : Yes

Text #2
ID : 5
Format : UTF-8
Codec ID : S_TEXT/UTF8
Codec ID/Info : UTF-8 Plain Text
Duration : 1 h 55 min
Bit rate : 69 b/s
Count of elements : 1336
Stream size : 59.1 KiB (0%)
Title : Full
Language : Russian
Default : No
Forced : No

Text #3
ID : 6
Format : UTF-8
Codec ID : S_TEXT/UTF8
Codec ID/Info : UTF-8 Plain Text
Duration : 1 h 45 min
Bit rate : 49 b/s
Count of elements : 1356
Stream size : 38.5 KiB (0%)
Title : Full
Language : English
Default : No
Forced : No

Menu
00:00:00.000 : en:Глава 01
00:07:21.650 : en:Глава 02
00:15:31.681 : en:Глава 03
00:18:13.134 : en:Глава 04
00:24:39.520 : en:Глава 05
00:30:59.441 : en:Глава 06
00:34:09.464 : en:Глава 07
00:42:40.308 : en:Глава 08
00:50:24.897 : en:Глава 09
00:56:45.819 : en:Глава 10
01:03:30.306 : en:Глава 11
01:08:13.172 : en:Глава 12
01:16:45.935 : en:Глава 13
01:24:43.996 : en:Глава 14
01:30:04.733 : en:Глава 15
01:34:00.927 : en:Глава 16
01:42:14.462 : en:Глава 17
01:47:07.588 : en:Глава 18

pb.wtf



Скачать Гемини через торрент https://img16.lostpic.net/2020/01/02/7e4b554ae860541484bd5baf293a4153.jpg Скачать фильм Гемини через торрент бесплантно в хорошем качестве Описание: Генри Броган, первоклассный киллер, становится мишенью таинственного оперативника, который, кажется, знает каждый его шаг ... 10 10 12
Info! Золотая раздача, скачанное не засчитывается.
Торрент: Зарегистрирован [2020-02-02 06:22] · скачан: 422 раз
Статус: √ проверено
Размер: 10.85 GB
Как cкачать? Как скачать Гемини через торрент | UTorrent

% Раздел Тема Автор DL S | L
3D Фильмы [ 9.49 GB ] Гемини 3Д / Gemini Man 3D [2019 BDRip 1080p ] DUB [] bober100 Скачать
2 | 0
Фильмы (Blu-ray, BD-Remux, HDDVD) [ 38.14 GB ] Гемини / Gemini Man [2019 BD Remux 1080p ] DUB [] bober100 Скачать
1 | 0
Фильмы 2019-2020 [DVDrip, WEB-DLRip, HDrip] (DUB, MVO) [ 747 MB ] Гемини / Gemini Man [2019 HDRip] DUB [] bober100 Скачать
1 | 0
Фильмы (Blu-ray, BD-Remux, HDDVD) [ 45.33 GB ] Гемини / Gemini Man [2019 Blu-ray EUR 1080p] DUB [] bober100 Скачать
1 | 0
Фильмы [HD 720p, 1080p] (Хороший звук DUB, MVO) [ 5.95 GB ] Гемини / Gemini Man [2019 BDRip 720p] DUB [] bober100 Скачать
1 | 0
Ultra HD (UHD: 2K, 4K, 8K) — видео сверхвысокой чёткости [ 42.72 GB ] Гемини / Gemini Man [2019 UHD BDRip 2160p ] [SDR] bober100 Скачать
1 | 0
Ultra HD (UHD: 2K, 4K, 8K) — видео сверхвысокой чёткости [ 68.72 GB ] Гемини / Gemini Man [2019 UHD BDRemux 2160p ] bober100 Скачать
2 | 0

28-11-2019 20:33  

Отключить всю рекламу на сайте

    Дорогой пользователь! Огромная просьба, поблагодарите релизера, оцените раздачу и оставьте свои комментарий, если Вы скачали Гемини через торрент бесплатно! Внесите свою лепту в развитие PiratBit!
    Комментировать посты могут только пользователи прошедшие не сложную регистрацию
    Показать сообщения:    

    Гемини через торрент
    Скачать бесплатно Гемини
    Гемини скачать торрент
    Гемини смотреть онлайн
    Cкачать фильм Гемини бесплатно
    Гемини скачать торрент в хорошем качестве
    Гемини смотреть онлайн бесплатно в хорошем качестве


    Вы не можете начинать темы
    Вы не можете отвечать на сообщения
    Вы не можете редактировать свои сообщения
    Вы не можете удалять свои сообщения
    Вы не можете голосовать в опросах
    Вы не можете прикреплять файлы к сообщениям
    Вы можете скачивать файлы