Ссылка на приватное зеркало нашего сайта всего за 1$. Внимание количество ограничено!!!

2 сезон

iTunes

1 сезон

1

iTunes

iTunes

iTunes

1 сезон

RePack

30

ИГРА 18+

pack

ВАЖНО

!!Акция!!

Alien_RageХит недели

RePack

MK11
pack

Забери бонус

RePack

jed

!!Акция!!

Alien_Rage

RePack

fifa19

RePack

Assassins Creed: Odyssey

RePack

NEED FOR SPEED™ PAYBACK

4 сезон

9 сезон

Бесстыжие 9 сезон

Все сериалы

все сериалы на PB.wtf

RePack

FAR CRY 5
  

Лучшие враги / Сезон: 1 / Серии: 1-30 из 30 (Богдан Дробязко) [2014, Криминал, детектив, WEBRip] pb.wtf

Лучшие враги через торрент pb.wtf

Размер: 17.06 GB | Добавлен: 8 мес. назад | Торрент скачан:27 раз
Скачать  

02-02-2020 16:38 Лучшие враги Скачать торрент  

Лучшие враги Год выпуска: 2014
Страна: Россия
Жанр: Криминал, детектив
Продолжительность: ~ 00:45:00
Перевод: Не требуется
Субтитры: отсутствуют

Режиссер: Богдан Дробязко



В ролях: Алексей Нилов, Сергей Селин, Вера Сотникова, Андрей Зибров, Сергей Апрельский, Анна Табанина, Алексей Фокин, Андрей Гульнев, Вячеслав Коробицин, Константин Кайнов, Александр Есаулов, Вадим Романов, Александр Солоненко, Валентин Кузнецов (III), Андрей Благословенский, Владимир Шагин, Денис Ворошилов, Фёдор Прожога, Александр Берг, Вячеслав Гасай, Юлия Скороход, Никита Чеканов, Сергей Галич, Дмитрий Лебедев, Алексей Белозерцев, Денис Горин, Вячеслав Железняков, Евгения Игумнова, Надежда Рязанцева, Ирина Обрезкова, Алексей Козлов (V)

Описание: Главные герои этого сериала - Глеб Данилов, подполковник, начальник оперативно-розыскной группы ГУВД, и Владимир Старыгин, тоже подполковник, начальник аналитической группы. Два начальника, два опытных работника – они друг друга недолюбливают. Данилов – простой мужик, через три слова мат, через два – рюмка. Старыгин – интеллигент, аристократ. Данилов, хоть и подполковник, ночами сидит с операми в засаде, спит в кабинете на стульях. Оперов любит по-отцовски, старается их прикрывать, если кто проколется. Подчиненные к нему, соответственно относятся, что называется, – в огонь и в воду. Старыгин сидит в уютном офисе в окружении трех сотрудников.

Качество: WEBRip
Формат: AVI

Видео: XviD, ~ 1600 Кбит/с, 720x400
Аудио: AC3, 2 ch, 192 Кбит/с
скриншот  скриншот  скриншот  скриншот  скриншот  

General
Complete name : H:fiiles xЛучшие враги..2014.WEB-DLRip.Files-x8. Лучшие враги..2014.WEB-DLRip.Files-x.avi
Format : AVI
Format/Info : Audio Video Interleave
File size : 580 MiB
Duration : 45mn 2s
Overall bit rate : 1 802 Kbps
Writing application : VirtualDubMod 1.5.10.3 | www.virtualdub-fr.org || (build 2550/release)
Writing library : VirtualDubMod build 2550/release

Video
ID : 0
Format : MPEG-4 Visual
Format profile : Advanced Simple@L5
Format settings, BVOP : 1
Format settings, QPel : No
Format settings, GMC : No warppoints
Format settings, Matrix : Custom
Codec ID : XVID
Codec ID/Hint : XviD
Duration : 45mn 2s
Bit rate : 1 600 Kbps
Width : 720 pixels
Height : 400 pixels
Display aspect ratio : 16:9
Frame rate : 25.000 fps
Color space : YUV
Chroma subsampling : 4:2:0
Bit depth : 8 bits
Scan type : Progressive
Compression mode : Lossy
Bits/(Pixel*Frame) : 0.222
Stream size : 515 MiB (89%)
Writing library : XviD 73

Audio
ID : 1
Format : AC-3
Format/Info : Audio Coding 3
Mode extension : CM (complete main)
Codec ID : 2000
Duration : 45mn 2s
Bit rate mode : Constant
Bit rate : 192 Kbps
Channel(s) : 2 channels
Channel positions : Front: L R
Sampling rate : 48.0 KHz
Bit depth : 16 bits
Compression mode : Lossy
Stream size : 61.9 MiB (11%)
Alignment : Split accross interleaves
Interleave, duration : 40 ms (1.00 video frame)
Interleave, preload duration : 500 ms

pb.wtf



Скачать Лучшие враги через торрент http://i87.fastpic.ru/big/2016/1225/41/968013ef4a38ffb34f8bc32f350ef941.jpg Скачать фильм Лучшие враги через торрент бесплантно в хорошем качестве Описание: Главные герои этого сериала - Глеб Данилов, подполковник, начальник оперативно-розыскной группы ГУВД, и Владимир Старыгин, тоже ... 10 10 4
Торрент: Зарегистрирован [2020-02-02 16:38] · скачан: 27 раз
Статус: √ проверено
Размер: 17.06 GB
Как cкачать? Как скачать Лучшие враги через торрент | qTorrent

% Раздел Тема Автор DL S | L
Наши сериалы [ 16.97 GB ] Лучшие враги / Сезон: 1 / Серии: 1-30 из 30 [2014 WEBRip-AVC] bober100 Скачать
1 | 0
Наши сериалы [ 87.98 GB ] Лучшие враги / Сезон: 1 / Серии: 1-30 из 30 [2014 HDTV 1080i] bober100 Скачать
1 | 0
Наши сериалы [ 16.1 GB ] Лучшие враги / Сезон: 1 / Серии 1-30 из 30 [2014 Россия SATRip) GEKADOL Скачать
1 | 0

28-11-2019 20:33  

Отключить всю рекламу на сайте

    Дорогой пользователь! Огромная просьба, поблагодарите релизера, оцените раздачу и оставьте свои комментарий, если Вы скачали Лучшие враги через торрент бесплатно! Внесите свою лепту в развитие PiratBit!
    Комментировать посты могут только пользователи прошедшие не сложную регистрацию
    Показать сообщения:    

    Лучшие враги через торрент
    Скачать бесплатно Лучшие враги
    Лучшие враги скачать торрент
    Лучшие враги смотреть онлайн
    Cкачать фильм Лучшие враги бесплатно
    Лучшие враги скачать торрент в хорошем качестве
    Лучшие враги смотреть онлайн бесплатно в хорошем качестве


    Вы не можете начинать темы
    Вы не можете отвечать на сообщения
    Вы не можете редактировать свои сообщения
    Вы не можете удалять свои сообщения
    Вы не можете голосовать в опросах
    Вы не можете прикреплять файлы к сообщениям
    Вы можете скачивать файлы