Ссылка на приватное зеркало нашего сайта всего за 1$. Внимание количество ограничено!!!

2 сезон

iTunes

1 сезон

1

2 сезон

2 сезон

iTunes

1 сезон

RePack

30

Новинка

ВАЖНО

ИГРА 18+

pack

RePack

MK11
pack

Забери бонус

RePack

jed

!!Акция!!

Alien_Rage

RePack

fifa19

RePack

Assassins Creed: Odyssey

RePack

NEED FOR SPEED™ PAYBACK

4 сезон

9 сезон

Бесстыжие 9 сезон

Все сериалы

все сериалы на PB.wtf

RePack

FAR CRY 5
  

21 мост / 21 Bridges (Брайан Кирк) [2019, боевик, триллер, драма, криминал, WEB-DL 720p] DUB [iTunes] pb.wtf

21 мост через торрент pb.wtf

Раздают: 2 [ 0 KB/s ]
Размер: 3.12 GB | Добавлен: 9 мес. назад | Торрент скачан:132 раза
Скачать  

02-02-2020 18:09 21 мост Скачать торрент  

21 мост | 21 Bridges
Год выпуска: 2019
Страна: США
Жанр: боевик, триллер, драма, криминал
Продолжительность: 01:39:32
Перевод: Дублированный | iTunes
Субтитры: отсутствуют

Режиссер: Брайан Кирк

rating

В ролях: Чедвик Боузман, Сиенна Миллер, Тейлор Китч, Дж.К. Симмонс, Стефан Джеймс, Кит Дэвид, Александр Сиддиг, Луис Канселми, Виктория Картахена, Гари Карр

Описание: Он охотится на преступников, которые совершили на Манхэттене дерзкое ограбление, оставив после себя 8 мертвых полицейских. А продажные копы тем временем охотятся на него, пытаясь подставить. Но преступникам не скрыться, так как первый раз в истории Нью-Йорка полиция перекрыла все выходы с острова, в том числе 21 мост.

Качество: WEB-DL 720p
Формат: MKV

Видео: MPEG-4 AVC, 4101 Кбит/с, 1280x534
Аудио: Русский (AC3, 6 ch, 384 Кбит/с)
скриншот  скриншот  скриншот  скриншот  скриншот  

Общее
Уникальный идентификатор : 204499844278627898748345220124838614044 (0x99D93CC46732327BB1669E9226C2541C)
Полное имя : C:\21.most.2019.WEB-DL.720p.ELEKTRI4KA.UNIONGANG.mkv
Формат : Matroska
Версия формата : Version 4 / Version 2
Размер файла : 3,12 Гбайт
Продолжительность : 1 ч. 39 м.
Общий поток : 4487 Кбит/сек
Дата кодирования : UTC 2020-02-03 19:11:20
Программа кодирования : mkvmerge v8.3.0 ('Over the Horizon') 64bit
Библиотека кодирования : libebml v1.3.1 + libmatroska v1.4.2

Видео
Идентификатор : 1
Формат : AVC
Формат/Информация : Advanced Video Codec
Профиль формата : Main@L3.1
Параметр CABAC формата : Нет
Параметр RefFrames формата : 2 кадра
Идентификатор кодека : V_MPEG4/ISO/AVC
Продолжительность : 1 ч. 39 м.
Битрейт : 4101 Кбит/сек
Ширина : 1280 пикселей
Высота : 534 пикселя
Соотношение сторон : 2,40:1
Режим частоты кадров : Постоянный
Частота кадров : 23,976 (24000/1001) кадра/сек
Цветовое пространство : YUV
Субдискретизация насыщенности : 4:2:0
Битовая глубина : 8 бит
Тип развёртки : Прогрессивная
Бит/(Пиксели*Кадры) : 0.250
Размер потока : 2,85 Гбайт (91%)
Заголовок : iTunes (ELEKTRI4KA.UNIONGANG)
Язык : English
Default : Да
Forced : Нет
Цветовой диапазон : Limited
Основные цвета : BT.709
Характеристики трансфера : BT.709
Коэффициенты матрицы : BT.709

Аудио
Идентификатор : 2
Формат : AC-3
Формат/Информация : Audio Coding 3
Расширение режима : CM (complete main)
Параметр Endianness формата : Big
Идентификатор кодека : A_AC3
Продолжительность : 1 ч. 39 м.
Вид битрейта : Постоянный
Битрейт : 384 Кбит/сек
Каналы : 6 каналов
Расположение каналов : Front: L C R, Side: L R, LFE
Частота : 48,0 КГц
Частота кадров : 31,250 кадров/сек (1536 spf)
Метод сжатия : С потерями
Размер потока : 273 Мбайт (9%)
Заголовок : iTunes (ELEKTRI4KA.UNIONGANG)
Язык : Russian
Default : Да
Forced : Нет

Меню
00:00:00.000 : en:1
00:02:55.000 : en:2
00:12:20.000 : en:3
00:23:07.000 : en:4
00:34:27.000 : en:5
00:43:41.000 : en:6
00:53:41.000 : en:7
01:03:31.000 : en:8
01:11:31.000 : en:9
01:18:48.000 : en:10
01:32:11.000 : en:11

pb.wtf



Скачать 21 мост через торрент https://d.radikal.ru/d42/2002/46/9e4c1df5216f.jpg Скачать фильм 21 мост через торрент бесплантно в хорошем качестве Описание: Он охотится на преступников, которые совершили на Манхэттене дерзкое ограбление, оставив после себя 8 мертвых полицейских. А ... 10 10 4
Торрент: Зарегистрирован [2020-02-03 20:02] · скачан: 132 раз
Статус: √ проверено
Размер: 3.12 GB
Как cкачать? Как скачать 21 мост через торрент | qTorrent

% Раздел Тема Автор DL S | L
Ultra HD (UHD: 2K, 4K, 8K) — видео сверхвысокой чёткости [ 54 GB ] 21 мост / 21 Bridges [2019 UHD BDRemux 2160p] +AVO [Е.Гаевский] bober100 Скачать
2 | 0
Фильмы 2019-2020 [DVDrip, WEB-DLRip, HDrip] (DUB, MVO) [ 1.42 GB ] 21 мост / 21 Bridges [2019 BDRip] bober100 Скачать
14 | 0
Фильмы [HD 720p, 1080p] (Хороший звук DUB, MVO) [ 4.52 GB ] 21 мост / 21 Bridges [2019 BDRip 720p] bober100 Скачать
5 | 0
Фильмы 2019-2020 [DVDrip, WEB-DLRip, HDrip] (DUB, MVO) [ 1.46 GB ] 21 мост / 21 Bridges [2019 HDRip] - Twi7ter Скачать
31 | 1
Фильмы [HD 720p, 1080p] (Хороший звук DUB, MVO) [ 10.85 GB ] 21 мост / 21 Bridges [2019 BDRip 1080p] bober100 Скачать
15 | 0
Фильмы (WEB-DL 720p, 1080p) [ 3.72 GB ] 21 мост / 21 Bridges [2019 WEB-DL 1080p] bober100 Скачать
7 | 0
Фильмы (Blu-ray, BD-Remux, HDDVD) [ 24.56 GB ] 21 мост / 21 Bridges [2019 BD Remux 1080p] bober100 Скачать
1 | 0

28-11-2019 20:33  

Отключить всю рекламу на сайте

    Дорогой пользователь! Огромная просьба, поблагодарите релизера, оцените раздачу и оставьте свои комментарий, если Вы скачали 21 мост через торрент бесплатно! Внесите свою лепту в развитие PiratBit!
    Комментировать посты могут только пользователи прошедшие не сложную регистрацию
    Показать сообщения:    

    21 мост через торрент
    Скачать бесплатно 21 мост
    21 мост скачать торрент
    21 мост смотреть онлайн
    Cкачать фильм 21 мост бесплатно
    21 мост скачать торрент в хорошем качестве
    21 мост смотреть онлайн бесплатно в хорошем качестве


    Вы не можете начинать темы
    Вы не можете отвечать на сообщения
    Вы не можете редактировать свои сообщения
    Вы не можете удалять свои сообщения
    Вы не можете голосовать в опросах
    Вы не можете прикреплять файлы к сообщениям
    Вы можете скачивать файлы