2 сезон

iTunes

1 сезон

1

iTunes

iTunes

iTunes

1 сезон

RePack

30

ИГРА 18+

pack

ВАЖНО

!!Акция!!

Alien_RageХит недели

RePack

MK11
pack

Забери бонус

RePack

jed

!!Акция!!

Alien_Rage

RePack

fifa19

RePack

Assassins Creed: Odyssey

RePack

NEED FOR SPEED™ PAYBACK

4 сезон

9 сезон

Бесстыжие 9 сезон

Все сериалы

все сериалы на PB.wtf

RePack

FAR CRY 5
  

Снежный ком / Серии: 1-2 из 2 (Алексей Мясников) [2020, Мелодрама, WEB-DLRip-AVC] pb.wtf

Снежный ком через торрент pb.wtf

Размер: 2.19 GB | Добавлен: 8 мес. назад | Торрент скачан:18 раз
Скачать  

02-02-2020 19:26 Снежный ком Скачать торрент  

Снежный ком
Год выпуска: 2020
Страна: Россия
Жанр: Мелодрама
Продолжительность: ~ 01:30:00
Субтитры: отсутствуют

Режиссер: Алексей Мясников



В ролях: Александра Третьякова, Илья Ильиных, Кристина Александрова, Александра Гайдук, Игорь Сигов, Валерий Кащеев

Описание: Молодожёны Андрей и Вика вынуждены прервать свой медовый месяц — новоиспечённого мужа срочно вызывают в командировку. Андрей уезжает, а утром после ночного клуба просыпается в объятьях другой. Наташа, дочь крупного заказчика, влюбляется в него и расстаться с ней Андрей не решается. Но и рассказать обо всём своей жене он не осмеливается. Не успевает он оглянуться, как уже вынужден жить на два города и… на две семьи. Двойная жизнь, постоянная ложь и мучительный выбор — проблемы растут как снежный ком. И вот-вот накроют с головой…

Качество: WEB-DLRip-AVC
Формат: MKV

Видео: 1024x432, (2,40:1), 25 fps, AVC MPEG-4 (x264), High@L4.1 ~ 1600 kbps , 0.145 bit/pixel
Аудио: 48.0 kHz, AC3 Dolby Digital, 2/0 (L,R) ch, ~ 192 kbps
скриншот  скриншот  скриншот  скриншот  

General
Unique ID : 232309966028819349830243334028131818914 (0xAEC545A17E63D6FCA26F2E9E8DE7DDA2)
Complete name : F:\Снежный ком.(2019).WEB-DLRip.(AVC).Files-x\01.Снежный ком.(2019).).WEB-DLRip.(AVC).by.Серый1779.Files-x.mkv
Format : Matroska
Format version : Version 2
File size : 1.08 GiB
Duration : 1 h 26 min
Overall bit rate : 1 794 kb/s
Encoded date : UTC 2020-02-02 01:38:35
Writing application : mkvmerge v7.8.0 ('River Man') 32bit built on Apr 3 2015 12:11:22
Writing library : libebml v1.3.1 + libmatroska v1.4.2

Video
ID : 1
Format : AVC
Format/Info : Advanced Video Codec
Format profile : High@L4.1
Format settings : CABAC / 9 Ref Frames
Format settings, CABAC : Yes
Format settings, RefFrames : 9 frames
Codec ID : V_MPEG4/ISO/AVC
Duration : 1 h 26 min
Bit rate : 1 600 kb/s
Width : 1 024 pixels
Height : 432 pixels
Display aspect ratio : 2.40:1
Frame rate mode : Constant
Frame rate : 25.000 FPS
Color space : YUV
Chroma subsampling : 4:2:0
Bit depth : 8 bits
Scan type : Progressive
Bits/(Pixel*Frame) : 0.145
Stream size : 963 MiB (87%)
Writing library : x264 core 146 r2538 121396c
Encoding settings : cabac=1 / ref=9 / deblock=1:-2:-1 / analyse=0x3:0x133 / me=umh / subme=9 / psy=1 / psy_rd=1.00:0.15 / mixed_ref=1 / me_range=32 / chroma_me=1 / trellis=2 / 8x8dct=1 / cqm=0 / deadzone=21,11 / fast_pskip=0 / chroma_qp_offset=-3 / threads=18 / lookahead_threads=3 / sliced_threads=0 / nr=0 / decimate=1 / interlaced=0 / bluray_compat=0 / constrained_intra=0 / bframes=9 / b_pyramid=2 / b_adapt=2 / b_bias=0 / direct=1 / weightb=1 / open_gop=0 / weightp=2 / keyint=250 / keyint_min=25 / scenecut=40 / intra_refresh=0 / rc=2pass / mbtree=0 / bitrate=1600 / ratetol=1.0 / qcomp=0.60 / qpmin=0 / qpmax=69 / qpstep=4 / cplxblur=20.0 / qblur=0.5 / ip_ratio=1.40 / pb_ratio=1.30 / aq=2:1.00
Default : Yes
Forced : No
Color range : Limited
Color primaries : BT.709
Transfer characteristics : BT.709
Matrix coefficients : BT.709

Audio
ID : 2
Format : AC-3
Format/Info : Audio Coding 3
Format settings, Endianness : Big
Codec ID : A_AC3
Duration : 1 h 26 min
Bit rate mode : Constant
Bit rate : 192 kb/s
Channel(s) : 2 channels
Channel positions : Front: L R
Sampling rate : 48.0 kHz
Frame rate : 31.250 FPS (1536 SPF)
Bit depth : 16 bits
Compression mode : Lossy
Stream size : 118 MiB (11%)
Service kind : Complete Main
Default : Yes
Forced : No

pb.wtf



Скачать Снежный ком через торрент https://i111.fastpic.ru/big/2020/0201/59/ec74e9029621e3716abe915b78b2e659.jpg Скачать фильм Снежный ком через торрент бесплантно в хорошем качестве Описание: Молодожёны Андрей и Вика вынуждены прервать свой медовый месяц — новоиспечённого мужа срочно вызывают в командировку. Андрей ... 10 10 3
Торрент: Зарегистрирован [2020-02-02 19:26] · скачан: 18 раз
Статус: √ проверено
Размер: 2.19 GB
Как cкачать? Как скачать Снежный ком через торрент | qTorrent

% Раздел Тема Автор DL S | L
Наши сериалы [ 4.73 GB ] Снежный ком / Серии: 1-2 из 2 [2020 Мело HDTV 1080i] bober100 Скачать
1 | 0
Наши сериалы [ 2.26 GB ] Снежный ком / Серии: 1-2 из 2 [2020 Мело WEB-DLRip] bober100 Скачать
1 | 0

28-11-2019 20:33  

Отключить всю рекламу на сайте

    Дорогой пользователь! Огромная просьба, поблагодарите релизера, оцените раздачу и оставьте свои комментарий, если Вы скачали Снежный ком через торрент бесплатно! Внесите свою лепту в развитие PiratBit!
    Комментировать посты могут только пользователи прошедшие не сложную регистрацию
    Показать сообщения:    

    Снежный ком через торрент
    Скачать бесплатно Снежный ком
    Снежный ком скачать торрент
    Снежный ком смотреть онлайн
    Cкачать фильм Снежный ком бесплатно
    Снежный ком скачать торрент в хорошем качестве
    Снежный ком смотреть онлайн бесплатно в хорошем качестве


    Вы не можете начинать темы
    Вы не можете отвечать на сообщения
    Вы не можете редактировать свои сообщения
    Вы не можете удалять свои сообщения
    Вы не можете голосовать в опросах
    Вы не можете прикреплять файлы к сообщениям
    Вы можете скачивать файлы