Всегда рабочее зеркало без VPN и Proxy просто перед .vidak.icu напиши любое слово или цифру, Пример http://sil2.vidak.icu

MVO

2 сезон

2 сезон

1

1 сезон

iTunes

2 сезон

13

1 сезон

Распродажа

pack

Рекомендуем

Пиратка

30

ВАЖНО

RePack

MK11

RePack

jed

RePack

fifa19

RePack

RDR2

RePack

NEED FOR SPEED™ PAYBACK

Кинопоиск HD

6 сезон

 Острые козырьки 6 сезон

Все сериалы

все сериалы на PB.wtf

RePack

FAR CRY 5

Anonymous, нам критически не хватает 5601 руб. на оплату серверов и переферии за Апрель, помоги нам пожалуйста, вся надежда только на тебя. В благодарность мы отключим тебе всю рекламу на сайте!

×
  
Magnet ссылка

Зелёная комната / Green Room (Джереми Солнье) [2015, триллер, криминал, BDRip 1080p] DUB [SDI Media] +3xAVO pb.wtf

Зелёная комната через торрент pb.wtf

Размер: 8.74 GB | Добавлен: 2 года 3 мес. назад | Торрент скачан:115 раз
Смотреть онлайн Зелёная комната | Скачать    Ребята, помогите собрать деньги на оплату серверов!!!

02-02-2020 20:55 Зелёная комната Скачать торрент  

Зелёная комната | Green Room Год выпуска: 2015
Страна: США
Жанр: триллер, криминал
Продолжительность: 01:35:01
Перевод: Дублированный | SDI Media, Авторский (одноголосый)
Субтитры: Русские (полные, форсированные, для слабослышащих), английские

Режиссер: Джереми Солнье

rating

В ролях: Антон Ельчин, Джо Коул, Алиа Шокат, Каллум Тернер, Дэвид В. Томпсон, Марк Веббер, Мэйкон Блэр, Эрик Эдельштейн, Майкл Дрэйпер

Описание: В фильме речь пойдёт о музыкантах панк-группы, которые становятся свидетелями убийства во время концерта в каком-то захолустье. Теперь их хотят убить скинхеды, но не торопятся, а запирают для начала в некой зелёной комнате...

Качество: BDRip 1080p
Формат: MKV

Видео: MPEG-4 AVC, 9960 Кбит/с, 1920x800
Аудио #1: Русский (AC3, 2 ch, 192 Кбит/с) - дублированный (SDI Media)
Аудио #2: Русский (AC3, 6 ch, 640 Кбит/с) - цензурный (Ю.Немахов) по умолчанию
Аудио #3: Русский (AC3, 6 ch, 640 Кбит/с) - ненормативный (Д.Есарев)
Аудио #4: Русский (AC3, 6 ch, 640 Кбит/с) - цензурный (Д.Есарев)
Аудио #5: Русский (AC3, 6 ch, 640 Кбит/с) - ненормативный (А.Матвеев)
Аудио #6: Английский (AC3, 6 ch, 448 Кбит/с)
скриншот  скриншот  скриншот  скриншот  скриншот  

Полное имя : F:7Green.Room.2015.BDRip.1080p.HDReactor.mkv
Формат : Matroska
Версия формата : Version 2
Размер файла : 8,74 Гбайт
Продолжительность : 1 ч. 35 м.
Общий поток : 13,2 Мбит/сек
Название фильма : ~V ad~
Дата кодирования : UTC 2020-02-02 20:05:12
Программа кодирования : mkvmerge v6.5.0 ('Isn't she lovely') built on Oct 20 2013 12:50:05
Библиотека кодирования : libebml v1.3.0 + libmatroska v1.4.1
Обложка : Yes
Attachments : cover.jpg

Видео
Идентификатор : 1
Формат : AVC
Формат/Информация : Advanced Video Codec
Профиль формата : High@L4.1
Настройки формата : CABAC / 5 Ref Frames
Параметр CABAC формата : Да
Параметр RefFrames формата : 5 кадров
Идентификатор кодека : V_MPEG4/ISO/AVC
Продолжительность : 1 ч. 35 м.
Битрейт : 9960 Кбит/сек
Ширина : 1920 пикселей
Высота : 800 пикселей
Соотношение сторон : 2,40:1
Режим частоты кадров : Постоянный
Частота кадров : 23,976 (24000/1001) кадра/сек
Цветовое пространство : YUV
Субдискретизация насыщенности : 4:2:0
Битовая глубина : 8 бит
Тип развёртки : Прогрессивная
Бит/(Пиксели*Кадры) : 0.270
Размер потока : 6,44 Гбайт (74%)
Заголовок : ~V~
Библиотека кодирования : x264 core 148 r2705+54 9f484c1 t_mod_Custom [8-bit@all X86_64]
Настройки программы : cabac=1 / ref=5 / deblock=1:-3:-3 / analyse=0x3:0x133 / me=umh / subme=11 / psy=1 / fade_compensate=0.00 / psy_rd=1.10:0.00 / mixed_ref=1 / me_range=32 / chroma_me=1 / trellis=2 / 8x8dct=1 / cqm=0 / deadzone=21,11 / fast_pskip=0 / chroma_qp_offset=-2 / threads=6 / lookahead_threads=1 / sliced_threads=0 / nr=0 / decimate=0 / interlaced=0 / bluray_compat=0 / constrained_intra=0 / fgo=0 / bframes=10 / b_pyramid=2 / b_adapt=2 / b_bias=0 / direct=3 / weightb=1 / open_gop=0 / weightp=2 / keyint=240 / keyint_min=23 / scenecut=40 / intra_refresh=0 / rc=2pass / mbtree=0 / bitrate=9960 / ratetol=1.0 / qcomp=0.60 / qpmin=0:0:0 / qpmax=69:69:69 / qpstep=4 / cplxblur=20.0 / qblur=0.5 / ip_ratio=1.40 / pb_ratio=1.30 / aq=3:0.90 / aq-sensitivity=11.00 / aq-factor=1.00:1.00:1.00 / aq2=1:0.70 / aq2-sensitivity=10.00 / aq2-factor=1.00:1.00:1.00 / aq3=1:[0.60:0.60]:[0.60:0.60]:[0.60:0.60]:[0.60:0.60] / aq3-sensitivity=8.00 / aq3-factor=[1.00:1.00]:[1.00:1.00]:[1.00:1.00] / aq3-boundary=192:64:24
Язык : Английский
Default : Да
Forced : Нет

Аудио #1
Идентификатор : 2
Формат : AC-3
Формат/Информация : Audio Coding 3
Коммерческое название : Dolby Digital
Идентификатор кодека : A_AC3
Продолжительность : 1 ч. 35 м.
Вид битрейта : Постоянный
Битрейт : 192 Кбит/сек
Каналы : 2 канала
Channel layout : L R
Частота : 48,0 КГц
Частота кадров : 31,250 кадров/сек (1536 SPF)
Битовая глубина : 16 бит
Метод сжатия : С потерями
Размер потока : 131 Мбайт (1%)
Заголовок : Dub "SDI Media"
Язык : Русский
Service Kind : Complete Main
Default : Нет
Forced : Нет

Аудио #2
Идентификатор : 3
Формат : AC-3
Формат/Информация : Audio Coding 3
Коммерческое название : Dolby Digital
Идентификатор кодека : A_AC3
Продолжительность : 1 ч. 35 м.
Вид битрейта : Постоянный
Битрейт : 640 Кбит/сек
Каналы : 6 каналов
Channel layout : L R C LFE Ls Rs
Частота : 48,0 КГц
Частота кадров : 31,250 кадров/сек (1536 SPF)
Битовая глубина : 16 бит
Метод сжатия : С потерями
Размер потока : 435 Мбайт (5%)
Заголовок : AVO Ю.Немахов
Язык : Русский
Service Kind : Complete Main
Default : Нет
Forced : Нет

Аудио #3
Идентификатор : 4
Формат : AC-3
Формат/Информация : Audio Coding 3
Коммерческое название : Dolby Digital
Идентификатор кодека : A_AC3
Продолжительность : 1 ч. 35 м.
Вид битрейта : Постоянный
Битрейт : 640 Кбит/сек
Каналы : 6 каналов
Channel layout : L R C LFE Ls Rs
Частота : 48,0 КГц
Частота кадров : 31,250 кадров/сек (1536 SPF)
Битовая глубина : 16 бит
Метод сжатия : С потерями
Размер потока : 435 Мбайт (5%)
Заголовок : AVO Д.Есарев (без цензуры)
Язык : Русский
Service Kind : Complete Main
Default : Нет
Forced : Нет

Аудио #4
Идентификатор : 5
Формат : AC-3
Формат/Информация : Audio Coding 3
Коммерческое название : Dolby Digital
Идентификатор кодека : A_AC3
Продолжительность : 1 ч. 35 м.
Вид битрейта : Постоянный
Битрейт : 640 Кбит/сек
Каналы : 6 каналов
Channel layout : L R C LFE Ls Rs
Частота : 48,0 КГц
Частота кадров : 31,250 кадров/сек (1536 SPF)
Битовая глубина : 16 бит
Метод сжатия : С потерями
Размер потока : 435 Мбайт (5%)
Заголовок : AVO Д.Есарев (с цензурой)
Язык : Русский
Service Kind : Complete Main
Default : Нет
Forced : Нет

Аудио #5
Идентификатор : 6
Формат : AC-3
Формат/Информация : Audio Coding 3
Коммерческое название : Dolby Digital
Идентификатор кодека : A_AC3
Продолжительность : 1 ч. 35 м.
Вид битрейта : Постоянный
Битрейт : 640 Кбит/сек
Каналы : 6 каналов
Channel layout : L R C LFE Ls Rs
Частота : 48,0 КГц
Частота кадров : 31,250 кадров/сек (1536 SPF)
Битовая глубина : 16 бит
Метод сжатия : С потерями
Размер потока : 435 Мбайт (5%)
Заголовок : AVO А.Матвеев "Doctor_Joker" (без цензуры)
Язык : Русский
Service Kind : Complete Main
Default : Нет
Forced : Нет

Аудио #6
Идентификатор : 7
Формат : AC-3
Формат/Информация : Audio Coding 3
Коммерческое название : Dolby Digital
Идентификатор кодека : A_AC3
Продолжительность : 1 ч. 35 м.
Вид битрейта : Постоянный
Битрейт : 448 Кбит/сек
Каналы : 6 каналов
Channel layout : L R C LFE Ls Rs
Частота : 48,0 КГц
Частота кадров : 31,250 кадров/сек (1536 SPF)
Битовая глубина : 16 бит
Метод сжатия : С потерями
Размер потока : 305 Мбайт (3%)
Заголовок : 448
Язык : Английский
Service Kind : Complete Main
Default : Нет
Forced : Нет

Текст #1
Идентификатор : 8
Формат : UTF-8
Идентификатор кодека : S_TEXT/UTF8
Идентификатор кодека/Информация : UTF-8 Plain Text
Заголовок : Forced А.Матвеев "Doctor_Joker"
Язык : Русский
Default : Да
Forced : Нет

Текст #2
Идентификатор : 9
Формат : UTF-8
Идентификатор кодека : S_TEXT/UTF8
Идентификатор кодека/Информация : UTF-8 Plain Text
Заголовок : Forced
Язык : Русский
Default : Нет
Forced : Нет

Текст #3
Идентификатор : 10
Формат : UTF-8
Идентификатор кодека : S_TEXT/UTF8
Идентификатор кодека/Информация : UTF-8 Plain Text
Заголовок : Full
Язык : Русский
Default : Нет
Forced : Нет

Текст #4
Идентификатор : 11
Формат : UTF-8
Идентификатор кодека : S_TEXT/UTF8
Идентификатор кодека/Информация : UTF-8 Plain Text
Заголовок : SDH
Язык : Русский
Default : Нет
Forced : Нет

Текст #5
Идентификатор : 12
Формат : UTF-8
Идентификатор кодека : S_TEXT/UTF8
Идентификатор кодека/Информация : UTF-8 Plain Text
Заголовок : SDH
Язык : Английский
Default : Нет
Forced : Нет

Меню
00:00:00.000 : en:Chapter 01
00:07:44.213 : en:Chapter 02
00:13:51.247 : en:Chapter 03
00:18:01.163 : en:Chapter 04
00:24:30.051 : en:Chapter 05
00:32:01.961 : en:Chapter 06
00:37:28.162 : en:Chapter 07
00:45:49.788 : en:Chapter 08
00:49:17.162 : en:Chapter 09
00:55:19.524 : en:Chapter 10
01:00:19.866 : en:Chapter 11
01:03:34.894 : en:Chapter 12
01:10:05.201 : en:Chapter 13
01:13:34.701 : en:Chapter 14
01:17:52.209 : en:Chapter 15
01:25:07.560 : en:Chapter 16

pb.wtf



Скачать Зелёная комната через торрент http://s019.radikal.ru/i611/1607/b1/9c5c12fe2e90.png Скачать, смотреть онлайн Зелёная комната бесплантно в хорошем качестве Описание: В фильме речь пойдёт о музыкантах панк-группы, которые становятся свидетелями убийства во время концерта в каком-то захолустье. ... 10 10 3
Торрент: Зарегистрирован [2020-02-02 20:55] · скачан: 115 раз
Статус: √ проверено
Размер: 8.74 GB
Как cкачать? Как скачать Зелёная комната через торрент | UTorrent

% Раздел Тема Автор DL S | L
Фильмы (Blu-ray, BD-Remux, HDDVD) [ 26.3 GB ] Зелёная комната / Green Room [2015 BD Remux 1080p] 3xAVO bober100 Скачать
1 | 0

28-11-2019 20:33  

Отключить всю рекламу на сайте

03-02-2020 13:47 Зелёная комната Скачать торрент  

Жан-Люк Пикар всё разрулит! pb.wtf



    Дорогой пользователь! Огромная просьба, поблагодарите релизера, оцените раздачу и оставьте свои комментарий, если Вы скачали Зелёная комната через торрент бесплатно!
    Комментировать посты могут только пользователи прошедшие не сложную регистрацию
    Показать сообщения:    

    Зелёная комната через торрент
    Скачать бесплатно Зелёная комната
    Зелёная комната скачать торрент
    Зелёная комната смотреть онлайн
    Cкачать фильм Зелёная комната бесплатно
    Зелёная комната скачать торрент в хорошем качестве
    Зелёная комната смотреть онлайн бесплатно в хорошем качестве


    Вы не можете начинать темы
    Вы не можете отвечать на сообщения
    Вы не можете редактировать свои сообщения
    Вы не можете удалять свои сообщения
    Вы не можете голосовать в опросах
    Вы не можете прикреплять файлы к сообщениям
    Вы можете скачивать файлы