Ссылка на приватное зеркало нашего сайта всего за 1$. Внимание количество ограничено!!!

2 сезон

iTunes

1 сезон

1

2 сезон

2 сезон

iTunes

1 сезон

RePack

30

Новинка

ВАЖНО

ИГРА 18+

pack

RePack

MK11
pack

Забери бонус

RePack

jed

!!Акция!!

Alien_Rage

RePack

fifa19

RePack

Assassins Creed: Odyssey

RePack

NEED FOR SPEED™ PAYBACK

4 сезон

9 сезон

Бесстыжие 9 сезон

Все сериалы

все сериалы на PB.wtf

RePack

FAR CRY 5
  

9 жизней мокрой киски / 9 Lives of a Wet Pussy (Abel Ferrara) [1976 г., Adult, Drama, BDRip] pb.wtf

9 жизней мокрой киски через торрент pb.wtf

Раздают: 2 [ 0 KB/s ]
Размер: 1.36 GB | Добавлен: 9 мес. назад | Торрент скачан:174 раза
Скачать  

03-02-2020 07:47 9 жизней мокрой киски Скачать торрент  

9 жизней мокрой киски / 9 Lives of a Wet Pussy
Год выпуска: 1976

Страна: США

Жанр: Adult, Drama

Продолжительность: 01:10:38

Субтитры: Английские

Студия: Navaron Films

Режиссер: Abel Ferrara

rating

В ролях:
Pauline LaMonde ... Pauline
Dominique Santos ... Gypsy
Joy Silver ... Nacala
David Pirell ... Husband
Shaker Lewis ... Stable Boy
Nicholas St. John ... Chauffeur (as Nicholas George)
Tony Richards ... Attendant
Peggy Johnson ... Younger Sister
Abel Ferrara ... Old Man (as Jimmy Laine)
Everett East ... Attacker #1
Ack Ming ... Attacker #2
Описание: Pauline is a wealthy and married New York heiress who embarks on a series of sexual encounters with various people. She keeps in close contact with Gypsy, a tarot reader whom Pauline writes letters describing in minute detail about her conquests from seducing a French stable boy, to having sex with a gas station attendant, to a visiting Nigerian princess with a past, and to a fantasy lover, which apparently stems from her past involving a flashback sequence showing Pauline's young grand mother and younger sister taking a verse from the bible a little too far and seducing their own father.
Качество: BDRip
Формат: MKV
Видео: 1280x692, AVC, 2290 Кбит/сек
Аудио#1: Английский, AC3, 1 ch, 224 Кбит/сек
Аудио#2: Английский, AC3, 1 ch, 192 Кбит/сек
Видео
Идентификатор : 1
Формат : AVC
Формат/Информация : Advanced Video Codec
Профиль формата : Main@L4
Настройки формата : CABAC / 9 Ref Frames
Параметр CABAC формата : Да
Параметр RefFrames формата : 9 кадров
Идентификатор кодека : V_MPEG4/ISO/AVC
Продолжительность : 1 ч. 10 м.
Битрейт : 2290 Кбит/сек
Ширина : 1280 пикселей
Высота : 692 пикселя
Соотношение сторон : 1,85:1
Режим частоты кадров : Постоянный
Частота кадров : 23,976 (24000/1001) кадра/сек
Цветовое пространство : YUV
Субдискретизация насыщенности : 4:2:0
Битовая глубина : 8 бит
Тип развёртки : Прогрессивная
Бит/(Пиксели*Кадры) : 0.108
Размер потока : 1,13 Гбайт (83%)
Библиотека кодирования : x264 core 157 r2935 545de2f
Настройки программы : cabac=1 / ref=9 / deblock=1:-1:-1 / analyse=0x1:0x131 / me=tesa / subme=11 / psy=1 / psy_rd=1.00:0.15 / mixed_ref=1 / me_range=24 / chroma_me=1 / trellis=2 / 8x8dct=0 / cqm=0 / deadzone=21,11 / fast_pskip=0 / chroma_qp_offset=-3 / threads=22 / lookahead_threads=5 / sliced_threads=0 / nr=0 / decimate=1 / interlaced=0 / bluray_compat=0 / constrained_intra=0 / bframes=16 / b_pyramid=2 / b_adapt=2 / b_bias=0 / direct=3 / weightb=1 / open_gop=0 / weightp=2 / keyint=240 / keyint_min=24 / scenecut=40 / intra_refresh=0 / rc_lookahead=60 / rc=crf / mbtree=1 / crf=22.5 / qcomp=0.60 / qpmin=0 / qpmax=69 / qpstep=4 / vbv_maxrate=20000 / vbv_bufsize=25000 / crf_max=0.0 / nal_hrd=none / filler=0 / ip_ratio=1.40 / aq=1:1.00
Default : Да
Forced : Нет
Цветовой диапазон : Limited
Основные цвета : BT.709
Характеристики трансфера : BT.709
Коэффициенты матрицы : BT.709

Аудио #1
Идентификатор : 2
Формат : AC-3
Формат/Информация : Audio Coding 3
Коммерческое название : Dolby Digital
Идентификатор кодека : A_AC3
Продолжительность : 1 ч. 10 м.
Вид битрейта : Постоянный
Битрейт : 224 Кбит/сек
Каналы : 1 канал
ChannelLayout : C
Частота : 48,0 КГц
Частота кадров : 31,250 кадров/сек (1536 SPF)
Битовая глубина : 16 бит
Метод сжатия : С потерями
Задержка видео : -5 мс.
Размер потока : 113 Мбайт (8%)
Заголовок : eng
Язык : English
ServiceKind/String : Complete Main
Default : Да
Forced : Нет

Аудио #2
Идентификатор : 3
Формат : AC-3
Формат/Информация : Audio Coding 3
Коммерческое название : Dolby Digital
Идентификатор кодека : A_AC3
Продолжительность : 1 ч. 10 м.
Вид битрейта : Постоянный
Битрейт : 192 Кбит/сек
Каналы : 1 канал
ChannelLayout : C
Частота : 48,0 КГц
Частота кадров : 31,250 кадров/сек (1536 SPF)
Битовая глубина : 16 бит
Метод сжатия : С потерями
Задержка видео : -5 мс.
Размер потока : 97,0 Мбайт (7%)
Заголовок : eng comm
Язык : English
ServiceKind/String : Complete Main
Default : Нет
Forced : Нет

Текст #1
Идентификатор : 4
Формат : UTF-8
Идентификатор кодека : S_TEXT/UTF8
Идентификатор кодека/Информация : UTF-8 Plain Text
Заголовок : eng srt - rarelust.com
Язык : English
Default : Нет
Forced : Нет

Текст #2
Идентификатор : 5
Формат : ASS
Идентификатор кодека : S_TEXT/ASS
Идентификатор кодека/Информация : Advanced Sub Station Alpha
Продолжительность : 1 ч. 6 м.
Метод сжатия : Без потерь
Заголовок : eng
Язык : English
Default : Нет
Forced : Нет

Текст #3
Идентификатор : 6
Формат : ASS
Идентификатор кодека : S_TEXT/ASS
Идентификатор кодека/Информация : Advanced Sub Station Alpha
Продолжительность : 1 ч. 7 м.
Метод сжатия : Без потерь
Заголовок : eng
Язык : English
Default : Нет
Forced : Нет

Меню
00:00:00.000 : :Reel 1
00:19:09.857 : :Reel 2
00:36:39.322 : :Reel 3
00:56:26.049 : :Reel 4

скриншот  

pb.wtf



pack Скачать 9 жизней мокрой киски через торрент http://pic1.kartinco.top/images/12/dbkyx.jpg Скачать фильм 9 жизней мокрой киски через торрент бесплантно в хорошем качестве Описание: Pauline is a wealthy and married New York heiress who embarks on a series of sexual encounters with various people. She keeps in ... 9 10 6
Info! Золотая раздача, скачанное не засчитывается.
Торрент: Зарегистрирован [2020-02-03 07:47] · скачан: 174 раз
Статус: √ проверено
Размер: 1.36 GB
Как cкачать? Как скачать 9 жизней мокрой киски через торрент | qTorrent

28-11-2019 20:33  

Отключить всю рекламу на сайте

    Дорогой пользователь! Огромная просьба, поблагодарите релизера, оцените раздачу и оставьте свои комментарий, если Вы скачали 9 жизней мокрой киски через торрент бесплатно! Внесите свою лепту в развитие PiratBit!
    Комментировать посты могут только пользователи прошедшие не сложную регистрацию
    Показать сообщения:    

    9 жизней мокрой киски через торрент
    Скачать бесплатно 9 жизней мокрой киски
    9 жизней мокрой киски скачать торрент
    9 жизней мокрой киски смотреть онлайн
    Cкачать фильм 9 жизней мокрой киски бесплатно
    9 жизней мокрой киски скачать торрент в хорошем качестве
    9 жизней мокрой киски смотреть онлайн бесплатно в хорошем качестве


    Вы не можете начинать темы
    Вы не можете отвечать на сообщения
    Вы не можете редактировать свои сообщения
    Вы не можете удалять свои сообщения
    Вы не можете голосовать в опросах
    Вы не можете прикреплять файлы к сообщениям
    Вы можете скачивать файлы