Ссылка на приватное зеркало нашего сайта всего за 1$. Внимание количество ограничено!!!

2 сезон

iTunes

1 сезон

1

iTunes

iTunes

iTunes

1 сезон

RePack

30

ИГРА 18+

pack

ВАЖНО

!!Акция!!

Alien_RageХит недели

RePack

MK11
pack

Забери бонус

RePack

jed

!!Акция!!

Alien_Rage

RePack

fifa19

RePack

Assassins Creed: Odyssey

RePack

NEED FOR SPEED™ PAYBACK

4 сезон

9 сезон

Бесстыжие 9 сезон

Все сериалы

все сериалы на PB.wtf

RePack

FAR CRY 5
  

Филатов / Сезон: 1 / Серии: 1-21 из 21 (Максим Свешников) [2020, Комедия, мелодрама, WEB-DL 720p] pb.wtf

Филатов через торрент pb.wtf

Раздают: 1 [ 0 KB/s ]
Размер: 11.43 GB | Добавлен: 8 мес. назад | Торрент скачан:78 раз
Скачать  

03-02-2020 10:27 Филатов Скачать торрент  

Филатов
Год выпуска: 2020
Страна: Россия
Жанр: Комедия, мелодрама
Продолжительность: ~ 00:25:00 (Серия)
Субтитры: отсутствуют

Режиссер: Максим Свешников



В ролях: Фёдор Бондарчук, Олеся Судзиловская, Галина Польских, Эммануил Виторган, Мария Аронова, Максим Лагашкин, Егор Корешков, Пётр Романов, Марта Тимофеева, Алина Булынко, Александра Власова, Евгения Ярушникова, Кирилл Дубровицкий, Антонина Паперная, Екатерина Олькина, Полина Тузовская

Описание: Доктор Андрей Филатов — профессионал и один из лучших гинекологов столицы. Обаятельного и харизматичного врача обожают буквально все окружающие его женщины, однако вот уже тридцать лет он остается верен жене Алисе, с которой познакомился еще в студенческие времена. Внезапный уход жены становится для Филатова полной неожиданностью. Пытаясь заполнить образовавшуюся пустоту в своей жизни, гений медицины начинает поиски новых отношений, но вскоре понимает, что Алису, идеальную во всем, никто не сможет заменить, и решает во что бы то ни стало ее вернуть…

Качество: WEB-DL 720p
Формат: MKV

Видео: MPEG4 AVC Video, H264, 16:9, 1280x720, 25 fps, ~3000 kbps, 0.130 bit/pixel
Аудио: 48 kHz, AC3 Dolby Digital, 2/0 (L,R) ch, ~192 kbps
скриншот  скриншот  скриншот  скриншот  скриншот  

General
Unique ID : 202764340647431539481999219030830284026 (0x988AFDD4F46D305C87D86528BE36FCFA)
Complete name : D:\Filatov.S01.2019.WEB-DL.(720p).Getty\Filatov.s01e01.2019.WEB-DL.(720p).Getty.mkv
Format : Matroska
Format version : Version 4 / Version 2
File size : 541 MiB
Duration : 23 min 46 s
Overall bit rate : 3 178 kb/s
Movie name : Filatov.s01e01.2019.WEB-DL.(720p).Getty
Encoded date : UTC 2020-02-03 10:00:16
Writing application : mkvmerge v7.8.0 ('River Man') 32bit built on Mar 27 2015 16:18:02
Writing library : libebml v1.3.1 + libmatroska v1.4.2

Video
ID : 1
Format : AVC
Format/Info : Advanced Video Codec
Format profile : High@L4.1
Format settings : CABAC / 5 Ref Frames
Format settings, CABAC : Yes
Format settings, ReFrames : 5 frames
Codec ID : V_MPEG4/ISO/AVC
Duration : 23 min 46 s
Bit rate : 2 984 kb/s
Width : 1 280 pixels
Height : 720 pixels
Display aspect ratio : 16:9
Frame rate mode : Constant
Frame rate : 25.000 FPS
Standard : PAL
Color space : YUV
Chroma subsampling : 4:2:0
Bit depth : 8 bits
Scan type : Progressive
Bits/(Pixel*Frame) : 0.130
Stream size : 508 MiB (94%)
Default : Yes
Forced : No
Color range : Limited
Color primaries : BT.709
Transfer characteristics : BT.709
Matrix coefficients : BT.709

Audio
ID : 2
Format : AC-3
Format/Info : Audio Coding 3
Codec ID : A_AC3
Duration : 23 min 46 s
Bit rate mode : Constant
Bit rate : 192 kb/s
Channel(s) : 2 channels
Channel positions : Front: L R
Sampling rate : 48.0 kHz
Frame rate : 31.250 FPS (1536 SPF)
Bit depth : 16 bits
Compression mode : Lossy
Stream size : 32.7 MiB (6%)
Service kind : Complete Main
Default : Yes
Forced : No

Внимание! Раздача ведётся путём добавления новых серий; при каждом добавлении создётся новый торрент. Чтобы начать докачку новой серии, пользователям необходимо сделать следующее:
1. остановить скачивание;
2. удалить старый торрент у себя из клиента (старые серии удалять не надо);
3. скачать новый торрент и запустить его у себя в клиенте вместо старого, при этом указать клиенту путь в старую папку куда и должно происходить скачивание новых серий.
Ваш клиент при этом должен произвести хеширование (проверку) старой папки (если не производит сам - помогите ему сделать это), и будет докачивать только те серии которых у вас ещё нет. Старые серии при этом не удаляются, а продолжают раздаваться!
Eсли вы уже удалили старые серии, то предотвратить повторную закачку старых серий можно, отжав галочку в соответствующих местах при запуске нового торрента.
pb.wtf



Скачать Филатов через торрент https://img16.lostpic.net/2020/02/07/18023104b2a9ed982e62132686bb9e5f.jpg Скачать фильм Филатов через торрент бесплантно в хорошем качестве Описание: Доктор Андрей Филатов — профессионал и один из лучших гинекологов столицы. Обаятельного и харизматичного врача обожают буквально ... 8 10 14
Торрент: Зарегистрирован [2020-02-24 13:24] · скачан: 78 раз
Статус: √ проверено
Размер: 11.43 GB
Как cкачать? Как скачать Филатов через торрент | qTorrent

% Раздел Тема Автор DL S | L
Наши сериалы [ 6.44 GB ] Филатов / Сезон: 1 / Серии: 1-21 из 21 [2020 WEB-DLRip-AVC] bober100 Скачать
1 | 0
Наши сериалы [ 6.15 GB ] Филатов / Сезон: 1 / Серии: 1-21 из 21 [2020 WEB-DLRip] bober100 Скачать
1 | 0
Наши сериалы [ 18.59 GB ] Филатов / Сезон: 1 / Серии: 1-21 из 21 [2020 WEB-DL 1080p] bober100 Скачать
1 | 0

28-11-2019 20:33  

Отключить всю рекламу на сайте

    Дорогой пользователь! Огромная просьба, поблагодарите релизера, оцените раздачу и оставьте свои комментарий, если Вы скачали Филатов через торрент бесплатно! Внесите свою лепту в развитие PiratBit!
    Комментировать посты могут только пользователи прошедшие не сложную регистрацию
    Показать сообщения:    

    Филатов через торрент
    Скачать бесплатно Филатов
    Филатов скачать торрент
    Филатов смотреть онлайн
    Cкачать фильм Филатов бесплатно
    Филатов скачать торрент в хорошем качестве
    Филатов смотреть онлайн бесплатно в хорошем качестве


    Вы не можете начинать темы
    Вы не можете отвечать на сообщения
    Вы не можете редактировать свои сообщения
    Вы не можете удалять свои сообщения
    Вы не можете голосовать в опросах
    Вы не можете прикреплять файлы к сообщениям
    Вы можете скачивать файлы