2 сезон

iTunes

MVO

1

2 сезон

iTunes

iTunes

1 сезон

RePack

30

Новинка

ВАЖНО

ИГРА 18+

pack

RePack

MK11
pack

Легкие деньги

RePack

jed

RePack

fifa19

RePack

RDR2

RePack

NEED FOR SPEED™ PAYBACK

4 сезон

9 сезон

Бесстыжие 9 сезон

Все сериалы

все сериалы на PB.wtf

RePack

FAR CRY 5

Anonymous, добрый вечер, мы не успеваем собрать деньги на оплату серверов за декабрь и январь, помогите нам пожалуйста в это трудное время. В качестве благодарности мы отключим Вам всю рекламу на сайте (укажите свой ник в строку Ваше имя)!

×
  
Magnet ссылка

В осаде / Under Siege (Эндрю Дэвис) [1992, Боевик, триллер, драма, BDRip 720p / 60 FPS, Профессиональный (многоголосый закадровый)] от R.G. HD-Films pb.wtf

В осаде через торрент pb.wtf

Раздают: 1 [ 716 KB/s ]
Размер: 4.76 GB | Добавлен: 11 мес. назад | Торрент скачан:62 раза
Скачать  

03-02-2020 12:16 В осаде Скачать торрент  

В осаде / Under Siege
Год выпуска: 1992
Страна: США, Франция
Жанр: Боевик, триллер, драма
Продолжительность: 01:42:31
Перевод: Профессиональный (многоголосый)
Субтитры: Russian

Режиссер: Эндрю Дэвис

Бюджет: $35 000 000
Премьера в мире: 9 октября 1992

rating

В ролях: Стивен Сигал, Томми Ли Джонс, Гэри Бьюзи, Эрика Элениак, Колм Мини, Патрик О`Нил, Энди Романо, Ник Манкузо, Дэмиан Чапа, Трой Эванс, Дэвид МакНайт, Ли Хинтон, Гленн Моршауэр, Лео Александр, Джон Роттгер, Брэд Ри, Майкл Уэлден, Берни Кейси, Рики Пьер, Рэймонд Крус, Дуан Дэвис, Эдди Бо Смит мл., Ричард Джонс, Том Рейнольдс, Том Мазила, Кирк Барроуз, Джордж Чунг, Джим Чименто, Крэйг Данн, Дэниэл Дюпон, Фрэнк Феррара, Адам Джеймс, Майкл Гэйлорд Джеймс, Мигель Нино, Дэвид Уэбстер, Джин Барж, Энтони Дж. Браун, Хирам Баллок, Кристофер Алан Камерон, Ричард Дэвис, Тад Робинсон, Вэндалл Вейн Стюарт

Описание: Террористы – бывшая элита коммандос – под видом сопровождения рок-группы, которая должна выступить перед военными моряками, пробираются на корабль с ядерным оружием. Расправившись с основной частью командного состава они пытаются шантажировать правительство США. Все для захватчиков судна складывалось благополучно до тех пор, пока они не решили изолировать повара – бывшего морского пехотинца. Кок не мог стерпеть такого издевательства: он практически в одиночку хоронит планы подонков один за другим.

Качество: BDRip 720p / 60 FPS
Формат: MKV
Видео кодек: H.264
Аудио кодек: AC3
Видео: x264, 1280 x 720 ( 16:9 ), 6266 kbps, 60,000 fps, ( 0.113 bpp)
Аудио#1: Русский, AC-3, 48.0 KHz, 6 ch, 384 Kbps ( MVO-Gemini )
Релиз от:

скриншот   скриншот   скриншот   скриншот   скриншот  Автор рипа: slaventi-69
x264 [info]: frame I:2107 Avg QP:16.95 size:104291 PSNR Mean Y:47.03 U:53.66 V:53.99 Avg:48.32 Global:48.02
x264 [info]: frame P:86035 Avg QP:19.73 size: 29991 PSNR Mean Y:44.49 U:51.62 V:51.89 Avg:45.82 Global:45.47
x264 [info]: frame B:280621 Avg QP:22.73 size: 7178 PSNR Mean Y:43.49 U:51.43 V:51.70 Avg:44.88 Global:44.41
x264 [info]: consecutive B-frames: 2.6% 2.3% 6.1% 12.4% 66.2% 10.3%


Общее
Уникальный идентификатор : 17627799767003539182339141895969666704 (0xD42FDA14CD01B2717BE580664B17690)
Полное имя : F:\Under.Siege.(1992).BDRip.720p.(60 Fps).mkv
Формат : Matroska
Версия формата : Version 4
Размер файла : 4,76 Гбайт
Продолжительность : 1 ч. 42 м.
Общий поток : 6654 Кбит/сек
Название фильма : В осаде / Under Siege (1992) BDRip 720p (60 Fps)
Дата кодирования : UTC 2020-01-27 11:55:39
Программа кодирования : mkvmerge v42.0.0 ('Overtime') 64-bit
Библиотека кодирования : libebml v1.3.10 + libmatroska v1.5.2

Видео
Идентификатор : 1
Формат : AVC
Формат/Информация : Advanced Video Codec
Профиль формата : High@L4.1
Настройки формата : CABAC / 8 Ref Frames
Параметр CABAC формата : Да
Параметр RefFrames формата : 8 кадров
Идентификатор кодека : V_MPEG4/ISO/AVC
Продолжительность : 1 ч. 42 м.
Битрейт : 6266 Кбит/сек
Ширина : 1280 пикселей
Высота : 720 пикселей
Соотношение сторон : 16:9
Режим частоты кадров : Постоянный
Частота кадров : 60,000 кадров/сек
Цветовое пространство : YUV
Субдискретизация насыщенности : 4:2:0
Битовая глубина : 8 бит
Тип развёртки : Прогрессивная
Бит/(Пиксели*Кадры) : 0.113
Размер потока : 4,48 Гбайт (94%)
Заголовок : slaventi-69 ( R.G. HD-Films | 60 fps )
Библиотека кодирования : x264 core 130 r2273 b3065e6
Настройки программы : cabac=1 / ref=8 / deblock=1:-1:-1 / analyse=0x3:0x113 / me=umh / subme=9 / psy=1 / psy_rd=1.00:0.00 / mixed_ref=1 / me_range=26 / chroma_me=1 / trellis=2 / 8x8dct=1 / cqm=0 / deadzone=21,11 / fast_pskip=1 / chroma_qp_offset=-2 / threads=8 / lookahead_threads=2 / sliced_threads=0 / nr=0 / decimate=1 / interlaced=0 / bluray_compat=0 / constrained_intra=0 / bframes=5 / b_pyramid=2 / b_adapt=2 / b_bias=0 / direct=1 / weightb=1 / open_gop=0 / weightp=2 / keyint=250 / keyint_min=25 / scenecut=40 / intra_refresh=0 / rc_lookahead=40 / rc=crf / mbtree=1 / crf=17.5 / qcomp=0.60 / qpmin=0 / qpmax=69 / qpstep=4 / ip_ratio=1.40 / aq=1:1.00
Язык : English
Default : Да
Forced : Нет

Аудио
Идентификатор : 2
Формат : AC-3
Формат/Информация : Audio Coding 3
Коммерческое название : Dolby Digital
Идентификатор кодека : A_AC3
Продолжительность : 1 ч. 42 м.
Вид битрейта : Постоянный
Битрейт : 384 Кбит/сек
Каналы : 6 каналов
Channel layout : L R C LFE Ls Rs
Частота : 48,0 КГц
Частота кадров : 31,250 кадров/сек (1536 SPF)
Битовая глубина : 16 бит
Метод сжатия : С потерями
Размер потока : 281 Мбайт (6%)
Заголовок : MVO-Gemini
Язык : Russian
ServiceKind/String : Complete Main
Default : Да
Forced : Нет

Текст
Идентификатор : 3
Формат : UTF-8
Идентификатор кодека : S_TEXT/UTF8
Идентификатор кодека/Информация : UTF-8 Plain Text
Продолжительность : 1 ч. 37 м.
Битрейт : 93 бит/сек
ElementCount : 1039
Размер потока : 66,3 Кбайт (0%)
Заголовок : Sub
Язык : Russian
Default : Нет
Forced : Нет

Меню
00:00:00.000 : en:00:00:00.000
00:05:53.395 : en:00:05:53.395
00:10:23.373 : en:00:10:23.373
00:13:01.906 : en:00:13:01.906
00:17:19.330 : en:00:17:19.330
00:20:02.201 : en:00:20:02.201
00:24:16.330 : en:00:24:16.330
00:25:13.762 : en:00:25:13.762
00:29:40.612 : en:00:29:40.612
00:33:30.258 : en:00:33:30.258
00:36:18.385 : en:00:36:18.385
00:42:25.501 : en:00:42:25.501
00:45:13.544 : en:00:45:13.544
00:48:57.643 : en:00:48:57.643
00:50:22.603 : en:00:50:22.603
00:52:34.985 : en:00:52:34.985
00:58:11.446 : en:00:58:11.446
01:02:13.939 : en:01:02:13.939
01:06:43.416 : en:01:06:43.416
01:12:01.901 : en:01:12:01.901
01:15:01.414 : en:01:15:01.414
01:19:58.669 : en:01:19:58.669
01:26:43.990 : en:01:26:43.990
01:29:05.840 : en:01:29:05.840
01:31:25.563 : en:01:31:25.563
01:34:41.926 : en:01:34:41.926
01:35:17.337 : en:01:35:17.337
01:37:22.128 : en:01:37:22.128
01:38:57.765 : en:01:38:57.765

Просьба к переливающим на другие сайты, в оформлении указывайте пожалуйста авторство группы R.G. HD-Films pb.wtf



Скачать В осаде через торрент http://4put.ru/pictures/max/397/1221691.jpg Скачать фильм В осаде через торрент бесплантно в хорошем качестве Описание: Террористы – бывшая элита коммандос – под видом сопровождения рок-группы, которая должна выступить перед военными моряками, ... 9.8 10 10
Info! Золотая раздача, скачанное не засчитывается.
Торрент: Зарегистрирован [2020-02-03 12:16] · скачан: 62 раз
Статус: √ проверено
Размер: 4.76 GB
Как cкачать? Как скачать В осаде через торрент | UTorrent

% Раздел Тема Автор DL S | L
Фильмы (HD 720p, 1080p) (48-60 fps) [ 3.35 GB ] В осаде 2: Темная территория / Under Siege 2: Dark Territory [1995 BDRip 720p / 60 FPS ] от R.G. HD-Films slaventi-69 Скачать
2 | 1

28-11-2019 20:33  

Отключить всю рекламу на сайте

05-02-2020 15:06 В осаде Скачать торрент  

Фильм - один из эталонов боевиков, как и вторая часть. Зачетные вещи. Спасибо большое за релиз!!!pb.wtf



    Дорогой пользователь! Огромная просьба, поблагодарите релизера, оцените раздачу и оставьте свои комментарий, если Вы скачали В осаде через торрент бесплатно! Внесите свою лепту в развитие PiratBit!
    Комментировать посты могут только пользователи прошедшие не сложную регистрацию
    Показать сообщения:    

    В осаде через торрент
    Скачать бесплатно В осаде
    В осаде скачать торрент
    В осаде смотреть онлайн
    Cкачать фильм В осаде бесплатно
    В осаде скачать торрент в хорошем качестве
    В осаде смотреть онлайн бесплатно в хорошем качестве


    Вы не можете начинать темы
    Вы не можете отвечать на сообщения
    Вы не можете редактировать свои сообщения
    Вы не можете удалять свои сообщения
    Вы не можете голосовать в опросах
    Вы не можете прикреплять файлы к сообщениям
    Вы можете скачивать файлы