Ссылка на приватное зеркало нашего сайта всего за 1$. Внимание количество ограничено!!!

2 сезон

iTunes

1 сезон

1

2 сезон

2 сезон

iTunes

1 сезон

RePack

30

Ultimate

ВАЖНО

ИГРА 18+

pack

RePack

MK11
pack

Забери бонус

RePack

jed

!!Акция!!

Alien_Rage

RePack

fifa19

RePack

Assassins Creed: Odyssey

RePack

NEED FOR SPEED™ PAYBACK

4 сезон

9 сезон

Бесстыжие 9 сезон

Все сериалы

все сериалы на PB.wtf

RePack

FAR CRY 5
  

Дальше некуда / The Jesus Rolls (Джон Туртурро) [2019, драма, комедия, криминал, WEB-DL 1080p] DUB [iTunes] pb.wtf

Дальше некуда через торрент pb.wtf

Размер: 3.15 GB | Добавлен: 9 мес. назад | Торрент скачан:103 раза
Скачать  

03-02-2020 21:28 Дальше некуда Скачать торрент  

Дальше некуда | The Jesus Rolls
Год выпуска: 2019
Страна: США
Студия: Sidney Kimmel Entertainment
Жанр: драма, комедия, криминал
Продолжительность: 01:21:51
Перевод: Дублированный | iTunes
Субтитры: Русские (Full)

Режиссер: Джон Туртурро

rating

В ролях: Джон Туртурро, Бобби Каннавале, Одри Тоту, Пит Дэвидсон, Джон Хэмм, Соня Брага, Сьюзен Сарандон, Кристофер Уокен, Майкл Бадалукко, Роза Гилмор

Описание: Хесус Квинтана - легендарный боулер и в прошлом самый грозный соперник того самого Лебовски. Выйдя из тюрьмы, в первый же день свободной жизни, он воссоединяется с друзьями и снова пускается во все тяжкие. Однако, каким бы отчаянным ни было его положение, не стоит забывать, что с Хесусом шутки плохи.

Качество: WEB-DL 1080p
Формат: MKV

Видео: MPEG-4 AVC, 1920x1038, 5121 Kbit/s, 25.000 fps
Аудио: 48 kHz, AC3, 5.1, 384 Kbps | iTunes | RUS |
скриншот  скриншот  скриншот  скриншот  скриншот  

General
Unique ID : 89704459321566245607711711540922475796 (0x437C734FB96F5206080A2109BE76E514)
Complete name : D:The.Jesus.Rolls.2019.WEB-DL.1080p.seleZen.mkv
Format : Matroska
Format version : Version 4
File size : 3.15 GiB
Duration : 1 h 21 min
Overall bit rate : 5 507 kb/s
Movie name : The Jesus Rolls 2019 from селезень
Encoded date : UTC 2020-02-03 21:17:15
Writing application : mkvmerge v40.0.0 ('Old Town Road + Pony') 64-bit
Writing library : libebml v1.3.9 + libmatroska v1.5.2

Video
ID : 1
Format : AVC
Format/Info : Advanced Video Codec
Format profile : High@L4
Format settings : CABAC / 4 Ref Frames
Format settings, CABAC : Yes
Format settings, Reference : 4 frames
Codec ID : V_MPEG4/ISO/AVC
Duration : 1 h 21 min
Bit rate : 5 121 kb/s
Width : 1 920 pixels
Height : 1 038 pixels
Display aspect ratio : 1.85:1
Frame rate mode : Constant
Frame rate : 25.000 FPS
Color space : YUV
Chroma subsampling : 4:2:0
Bit depth : 8 bits
Scan type : Progressive
Bits/(Pixel*Frame) : 0.103
Stream size : 2.93 GiB (93%)
Language : English
Default : Yes
Forced : No
Color range : Limited
Color primaries : BT.709
Transfer characteristics : BT.709
Matrix coefficients : BT.709

Audio
ID : 2
Format : AC-3
Format/Info : Audio Coding 3
Commercial name : Dolby Digital
Codec ID : A_AC3
Duration : 1 h 21 min
Bit rate mode : Constant
Bit rate : 384 kb/s
Channel(s) : 6 channels
Channel layout : L R C LFE Ls Rs
Sampling rate : 48.0 kHz
Frame rate : 31.250 FPS (1536 SPF)
Compression mode : Lossy
Stream size : 225 MiB (7%)
Title : Dubbing (iTunes)
Language : Russian
Service kind : Complete Main
Default : Yes
Forced : Yes

Text
ID : 3
Format : UTF-8
Codec ID : S_TEXT/UTF8
Codec ID/Info : UTF-8 Plain Text
Duration : 1 h 16 min
Bit rate : 90 b/s
Count of elements : 947
Stream size : 50.2 KiB (0%)
Title : Full
Language : Russian
Default : No
Forced : No

Menu
00:00:00.000 : en:Глава 1
00:04:02.000 : en:Глава 2
00:09:00.840 : en:Глава 3
00:15:34.760 : en:Глава 4
00:20:08.560 : en:Глава 5
00:26:48.880 : en:Глава 6
00:35:08.880 : en:Глава 7
00:40:38.000 : en:Глава 8
00:49:13.000 : en:Глава 9
00:54:44.440 : en:Глава 10
01:03:00.160 : en:Глава 11
01:08:55.080 : en:Глава 12

pb.wtf



Скачать Дальше некуда через торрент https://d.radikal.ru/d24/2002/4a/099eafc9e531.png Скачать фильм Дальше некуда через торрент бесплантно в хорошем качестве Описание: Хесус Квинтана - легендарный боулер и в прошлом самый грозный соперник того самого Лебовски. Выйдя из тюрьмы, в первый же день ... 10 10 4
Торрент: Зарегистрирован [2020-02-03 21:28] · скачан: 103 раз
Статус: √ проверено
Размер: 3.15 GB
Как cкачать? Как скачать Дальше некуда через торрент | qTorrent

% Раздел Тема Автор DL S | L
Фильмы (WEB-DL 720p, 1080p) [ 2.22 GB ] Дальше некуда / The Jesus Rolls [2019 WEB-DL 720p] bober100 Скачать
1 | 0
Фильмы 2019-2020 [DVDrip, WEB-DLRip, HDrip] (DUB, MVO) [ 1.46 GB ] Дальше некуда / The Jesus Rolls [2019 BDRip] bober100 Скачать
2 | 0

28-11-2019 20:33  

Отключить всю рекламу на сайте

    Дорогой пользователь! Огромная просьба, поблагодарите релизера, оцените раздачу и оставьте свои комментарий, если Вы скачали Дальше некуда через торрент бесплатно! Внесите свою лепту в развитие PiratBit!
    Комментировать посты могут только пользователи прошедшие не сложную регистрацию
    Показать сообщения:    

    Дальше некуда через торрент
    Скачать бесплатно Дальше некуда
    Дальше некуда скачать торрент
    Дальше некуда смотреть онлайн
    Cкачать фильм Дальше некуда бесплатно
    Дальше некуда скачать торрент в хорошем качестве
    Дальше некуда смотреть онлайн бесплатно в хорошем качестве


    Вы не можете начинать темы
    Вы не можете отвечать на сообщения
    Вы не можете редактировать свои сообщения
    Вы не можете удалять свои сообщения
    Вы не можете голосовать в опросах
    Вы не можете прикреплять файлы к сообщениям
    Вы можете скачивать файлы