2 сезон

iTunes

MVO

1

2 сезон

iTunes

iTunes

1 сезон

RePack

30

Ultimate

ВАЖНО

ИГРА 18+

pack

RePack

MK11
pack

Легкие деньги

RePack

jed

RePack

fifa19

RePack

RDR2

RePack

NEED FOR SPEED™ PAYBACK

4 сезон

9 сезон

Бесстыжие 9 сезон

Все сериалы

все сериалы на PB.wtf

RePack

FAR CRY 5

Anonymous, добрый вечер, мы не успеваем собрать деньги на оплату серверов за декабрь и январь, помогите нам пожалуйста в это трудное время. В качестве благодарности мы отключим Вам всю рекламу на сайте (укажите свой ник в строку Ваше имя)!

×
  
Magnet ссылка

Йеллоустоун / Yellowstone / Сезон: 2 / Серии: 1-10 из 10 (Тейлор Шеридан) [2019, драма, вестерн, BDRip 1080p] MVO [LostFilm] pb.wtf

Йеллоустоун через торрент pb.wtf

Размер: 26.14 GB | Добавлен: 11 мес. назад | Торрент скачан:33 раза
Скачать  

04-02-2020 10:50 Йеллоустоун Скачать торрент  

Йеллоустоун | Yellowstone
«***»
Страна: США
Год выпуска: 2019
Жанр: драма, вестерн
Продолжительность: ~ 00:54:00 серия
Перевод: Многоголосый закадровый, профессиональный | LostFilm
Субтитры: Eng
Премьера (мир): 20 июня 2018

Режиссер: Тейлор Шеридан, Стефен Т. Кэй, Эдвард Бьянчи

В ролях: Кевин Костнер, Келли Райлли, Коул Хаузер, Люк Граймс, Уэс Бентли, Келси Эсбиль

Описание:
Йеллоустон — первый в мире национальный парк, одно из самих посещаемых мест в США. Но здесь, на границе цивилизации, происходит много такого, чего не видят туристы, что не освещается средствами массовой информации. Семья Даттон, главой которой является Джон Даттон, владеет огромным ранчо, сопредельным с территорией парка. На их землю претендует и сам парк, и индейская резервация, и жадные застройщики.



Качество: BDRip 1080p
Формат: MKV

Видео: MPEG-4 AVC, ~ 6746 Кбит/с, 1920x1080
Аудио Rus: AC-3, 48 kHz, 6 ch, 640 kbps |LostFilm|
Аудио Eng: AC-3, 48 kHz, 6 ch, 640 kbps |Original|
скриншот  скриншот  скриншот  скриншот  скриншот  

Общее
Уникальный идентификатор : 71174539270815927355454794358591259446 (0x358BB7B7A5550AE0C514EEE281BB0336)
Полное имя : D:\Yellowstone.2018.S02.1080p.BDRip.RUS.LF.EniaHD\Yellowstone.S02E01.1080p.BDRip.RUS.LF.EniaHD.mkv
Формат : Matroska
Версия формата : Version 4 / Version 2
Размер файла : 2,64 Гбайт
Продолжительность : 46 м. 55 с.
Общий поток : 8042 Кбит/сек
Название фильма : Yellowstone, Season 2
Трек/Положение : 1
Трек/Всего : 10
Описание : Kayce settles into his new role at the ranch. A damaging article threatens to expose John. Rainwater pitches his new plan to the tribal council.
Дата выпуска : 2019-06-20T02:00:00
Программа кодирования : mkvmerge v42.0.0 ('Overtime') 64-bit
Библиотека кодирования : libebml v1.3.10 + libmatroska v1.5.2
Обложка : Yes
Attachments : small_cover.jpg / cover.jpg

Видео
Идентификатор : 1
Формат : AVC
Формат/Информация : Advanced Video Codec
Профиль формата : High@L4.1
Параметр CABAC формата : Да
Параметр RefFrames формата : 4 кадра
Параметр GOP формата : M=3, N=23
Идентификатор кодека : V_MPEG4/ISO/AVC
Продолжительность : 46 м. 55 с.
Битрейт : 6746 Кбит/сек
Ширина : 1920 пикселей
Высота : 1080 пикселей
Соотношение сторон : 16:9
Режим частоты кадров : Постоянный
Частота кадров : 23,976 (24000/1001) кадра/сек
Цветовое пространство : YUV
Субдискретизация насыщенности : 4:2:0
Битовая глубина : 8 бит
Тип развёртки : Прогрессивная
Бит/(Пиксели*Кадры) : 0.136
Размер потока : 2,21 Гбайт (84%)
Язык : English
Default : Да
Forced : Нет
Цветовой диапазон : Limited
Основные цвета : BT.709
Характеристики трансфера : BT.709
Коэффициенты матрицы : BT.709

Аудио #1
Идентификатор : 2
Формат : AC-3
Формат/Информация : Audio Coding 3
Расширение режима : CM (complete main)
Параметр Endianness формата : Big
Идентификатор кодека : A_AC3
Продолжительность : 46 м. 55 с.
Вид битрейта : Постоянный
Битрейт : 640 Кбит/сек
Каналы : 6 каналов
Расположение каналов : Front: L C R, Side: L R, LFE
Частота : 48,0 КГц
Частота кадров : 31,250 кадров/сек (1536 spf)
Метод сжатия : С потерями
Размер потока : 215 Мбайт (8%)
Заголовок : AC3 5.1 @ 640kbps - MVO, Lostfilm
Язык : Russian
Default : Да
Forced : Нет
Дата выпуска : 2019-06-22T19:36:32Z

Аудио #2
Идентификатор : 3
Формат : AC-3
Формат/Информация : Audio Coding 3
Расширение режима : CM (complete main)
Параметр Endianness формата : Big
Идентификатор кодека : A_AC3
Продолжительность : 46 м. 55 с.
Вид битрейта : Постоянный
Битрейт : 640 Кбит/сек
Каналы : 6 каналов
Расположение каналов : Front: L C R, Side: L R, LFE
Частота : 48,0 КГц
Частота кадров : 31,250 кадров/сек (1536 spf)
Метод сжатия : С потерями
Размер потока : 215 Мбайт (8%)
Заголовок : AC3 5.1 @ 640kbps - Original
Язык : English
Default : Нет
Forced : Нет

Текст
Идентификатор : 4
Формат : PGS
Режим смешивания : zlib
Идентификатор кодека : S_HDMV/PGS
Идентификатор кодека/Информация : Picture based subtitle format used on BDs/HD-DVDs
Продолжительность : 45 м. 56 с.
Битрейт : 42,0 Кбит/сек
ElementCount : 1390
Размер потока : 13,8 Мбайт (1%)
Заголовок : SDH
Язык : English
Default : Нет
Forced : Нет

Меню
00:00:00.000 : en:Chapter 1
00:04:47.913 : en:Chapter 2
00:12:11.689 : en:Chapter 3
00:18:25.938 : en:Chapter 4
00:28:26.371 : en:Chapter 5
00:38:27.138 : en:Chapter 6
00:46:14.522 : en:Chapter 7

pb.wtf



Скачать Йеллоустоун через торрент https://i5.imageban.ru/out/2019/06/22/9beea2d01069bad0c8f6a46e63a468b1.png Скачать фильм Йеллоустоун через торрент бесплантно в хорошем качестве Описание:Йеллоустон — первый в мире национальный парк, одно из самих посещаемых мест в США. Но здесь, на границе цивилизации, происходит ... 10 10 5
Торрент: Зарегистрирован [2020-02-04 10:50] · скачан: 33 раз
Статус: √ проверено
Размер: 26.14 GB
Как cкачать? Как скачать Йеллоустоун через торрент | UTorrent

% Раздел Тема Автор DL S | L
Зарубежные сериалы [ 29.77 GB ] Йеллоустоун / Yellowstone / Сезон: 2 / Серии: 1-10 из 10 [2019 WEBRip 1080p] [MVO] killermax2013 Скачать
1 | 0
Зарубежные сериалы [ 6.85 GB ] Йеллоустоун / Yellowstone / Сезон: 2 / Серии: 1-10 из 10 [2019 WEB-DLRip] MVO [LostFilm] bober100 Скачать
1 | 0
Зарубежные сериалы [ 30.51 GB ] Йеллоустоун / Yellowstone / Сезон: 2 / Серии: 1-10 из 10 [2019 WEBRip 1080p] [MVO] killermax2013 Скачать
1 | 0
Зарубежные сериалы [ 30.3 GB ] Йеллоустоун / Yellowstone / Сезон: 2 / Серии: 1-10 из 10 [2019 WEB-DL 1080p] [MVO] killermax2013 Скачать
1 | 0
Зарубежные сериалы [ 7.19 GB ] Йеллоустоун / Yellowstone / Сезон: 2 / Серии: 1-10 из 10 [2019 WEB-DLRip] [MVO] killermax2013 Скачать
2 | 0
Зарубежные сериалы [ 15.03 GB ] Йеллоустоун / Yellowstone / Сезон: 2 / Серии: 1-10 из 10 [2019 WEB 720p] MVO [LostFilm] bober100 Скачать
1 | 0

28-11-2019 20:33  

Отключить всю рекламу на сайте

30-10-2020 16:56 Йеллоустоун Скачать торрент  

девятая серия косячная, вся тормозит и виснетpb.wtf



    Дорогой пользователь! Огромная просьба, поблагодарите релизера, оцените раздачу и оставьте свои комментарий, если Вы скачали Йеллоустоун через торрент бесплатно! Внесите свою лепту в развитие PiratBit!
    Комментировать посты могут только пользователи прошедшие не сложную регистрацию
    Показать сообщения:    

    Йеллоустоун через торрент
    Скачать бесплатно Йеллоустоун
    Йеллоустоун скачать торрент
    Йеллоустоун смотреть онлайн
    Cкачать фильм Йеллоустоун бесплатно
    Йеллоустоун скачать торрент в хорошем качестве
    Йеллоустоун смотреть онлайн бесплатно в хорошем качестве


    Вы не можете начинать темы
    Вы не можете отвечать на сообщения
    Вы не можете редактировать свои сообщения
    Вы не можете удалять свои сообщения
    Вы не можете голосовать в опросах
    Вы не можете прикреплять файлы к сообщениям
    Вы можете скачивать файлы