Ссылка на приватное зеркало всего за 1$. Внимание количество ограничено!!!

iTunes

1+1

iTunes

мы

MV0

1

WEB-DLRip

Джокер

Пифагор

Ведьмак / The Witcher сериал

iTunes

ПШазам

iTunes

Оно 2

iTunes

30
pack

Вам бонус

ВАЖНО

!!Акция!!

Alien_RageХит недели

RePack

Resident Evil 21

ИГРА 18+

pack

RePack

jed

!!Акция!!

Alien_Rage

RePack

fifa19

RePack

Assassins Creed: Odyssey

RePack

NEED FOR SPEED™ PAYBACK

4 сезон

9 сезон

Бесстыжие 9 сезон

Все сериалы

все сериалы на PB.wtf

RePack

FAR CRY 5
  

Протока / The Canal (Айван Кэвэна / Ivan Kavanagh) [2014, психологический триллер, мистика, драма, ужасы, BDRip 1080p] 2x[VO] (liosaa, xixidok) pb.wtf

Протока через торрент pb.wtf

Раздают: 3 [ 0 KB/s ]
Размер: 7.66 GB | Добавлен: 14 д. назад | Торрент скачан:45 раз
Скачать  

04-02-2020 13:22 Протока Скачать торрент  

Протока / The Canal Год выпуска: 2014
Страна: Ирландия
Жанр: психологический триллер, мистика, драма, ужасы
Продолжительность: 01:33:16
Перевод 1: Любительский (одноголосый закадровый) liosaa
Перевод 2: Любительский (одноголосый закадровый) Хихидок
Субтитры: русские liosaa, английские

Режиссер: Айван Кавана / Ivan Kavanagh

В ролях: Руперт Эванс, Антония Кэмпбелл-Хьюз, Ханна Хукстра, Келли Бирн, Стив Орам, Кэлам Хит

Описание: Рядовой кино-архивариус Дэвид переезжает вместе с женой-красавицей в новый дом. Идут года, у пары подрастает сынишка, а молодая мама после родов решает продолжить успешную карьеру бизнес-леди. Однажды, отправившись на светский раут, Дэвид замечает, что один из клиентов жены как-то особенно нежно с ней общается, и это наводит его на мрачные мысли. Вкоре жена исчезает, а на работе Дэвид находит архивную плёнку 1902г. - на ней запечатлён мужчина, убивший из-за ревности всю свою семью и сбросивший тела в протоку. Ужас находки в том, что кровавая драма произошла в доме, где живёт Дэвид...


rating
СЭМПЛ

Тип релиза: BDRip 1080p
Контейнер: MKV

Видео: x264, 1920x800 (2,40:1), 24.000 fps, 8550 Kbps
Аудио 1: DTS 5.1 ch, 1509 kbps, 24 bits, 48.0 KHz (рус) liosaa
Аудио 2: AC3 2.0 ch, 192 kbps, 16 bits, 48.0 KHz (рус) Хихидок
Аудио 3: DTS 5.1 ch, 1509 kbps, 24 bits, 48.0 KHz (eng)
Формат субтитров: softsub (SRT)
Формат                                   : Matroska
Версия формата : Version 2
Размер файла : 7,66 Гбайт
Продолжительность : 1 ч. 33 м.
Общий поток : 11,8 Мбит/сек
Дата кодирования : UTC 2020-02-02 20:12:55
Программа кодирования : mkvmerge v3.0.0 ('Hang up your Hang-Ups') built on Dec 12 2009 15:20:35
Библиотека кодирования : libebml v0.7.9 + libmatroska v0.8.1

Видео
Идентификатор : 1
Формат : AVC
Формат/Информация : Advanced Video Codec
Профиль формата : High@L4.1
Настройки формата : CABAC / 5 Ref Frames
Параметр CABAC формата : Да
Параметр RefFrames формата : 5 кадров
Идентификатор кодека : V_MPEG4/ISO/AVC
Продолжительность : 1 ч. 33 м.
Битрейт : 8550 Кбит/сек
Ширина : 1920 пикселей
Высота : 800 пикселей
Соотношение сторон : 2,40:1
Режим частоты кадров : Постоянный
Частота кадров : 24,000 кадра/сек
Цветовое пространство : YUV
Субдискретизация насыщенности : 4:2:0
Битовая глубина : 8 бит
Тип развёртки : Прогрессивная
Бит/(Пиксели*Кадры) : 0.232
Размер потока : 5,42 Гбайт (71%)
Библиотека кодирования : x264 core 146 r2538 121396c
Настройки программы : cabac=1 / ref=5 / deblock=1:0:0 / analyse=0x3:0x113 / me=umh / subme=8 / psy=1 / psy_rd=1.00:0.00 / mixed_ref=1 / me_range=16 / chroma_me=1 / trellis=1 / 8x8dct=1 / cqm=0 / deadzone=21,11 / fast_pskip=0 / chroma_qp_offset=-2 / threads=12 / lookahead_threads=2 / sliced_threads=0 / nr=0 / decimate=1 / interlaced=0 / bluray_compat=0 / constrained_intra=0 / bframes=3 / b_pyramid=2 / b_adapt=2 / b_bias=0 / direct=3 / weightb=1 / open_gop=0 / weightp=2 / keyint=250 / keyint_min=24 / scenecut=40 / intra_refresh=0 / rc_lookahead=50 / rc=2pass / mbtree=1 / bitrate=8550 / ratetol=1.0 / qcomp=0.60 / qpmin=0 / qpmax=69 / qpstep=4 / cplxblur=20.0 / qblur=0.5 / ip_ratio=1.40 / aq=1:1.00
Язык : English
Default : Нет
Forced : Нет
Statistics Tags Issue : mkvmerge v7.2.0 ('On Every Street') 64bit built on Sep 13 2014 15:52:10 2015-03-12 19:34:22 / mkvmerge v3.0.0 ('Hang up your Hang-Ups') built on Dec 12 2009 15:20:35 2020-02-02 20:12:55
FromStats_BitRate : 8546608
FromStats_Duration : 01:33:16.125000000
FromStats_FrameCount : 134307
FromStats_StreamSize : 5978486226

Аудио #1
Идентификатор : 2
Формат : DTS
Формат/Информация : Digital Theater Systems
Идентификатор кодека : A_DTS
Продолжительность : 1 ч. 33 м.
Вид битрейта : Постоянный
Битрейт : 1509 Кбит/сек
Каналы : 6 каналов
ChannelLayout : C L R Ls Rs LFE
Частота : 48,0 КГц
Частота кадров : 93,750 кадра/сек (512 SPF)
Битовая глубина : 24 бит
Метод сжатия : С потерями
Размер потока : 1007 Мбайт (13%)
Заголовок : VO*liosaa*DTS 5.1
Язык : Russian
Default : Да
Forced : Нет

Аудио #2
Идентификатор : 3
Формат : AC-3
Формат/Информация : Audio Coding 3
Коммерческое название : Dolby Digital
Идентификатор кодека : A_AC3
Продолжительность : 1 ч. 33 м.
Вид битрейта : Постоянный
Битрейт : 192 Кбит/сек
Каналы : 2 канала
ChannelLayout : L R
Частота : 48,0 КГц
Частота кадров : 31,250 кадров/сек (1536 SPF)
Битовая глубина : 16 бит
Метод сжатия : С потерями
Размер потока : 128 Мбайт (2%)
Заголовок : VO xixidok DD 2.0
Язык : Russian
ServiceKind/String : Complete Main
Default : Нет
Forced : Нет

Аудио #3
Идентификатор : 4
Формат : DTS
Формат/Информация : Digital Theater Systems
Идентификатор кодека : A_DTS
Продолжительность : 1 ч. 33 м.
Вид битрейта : Постоянный
Битрейт : 1509 Кбит/сек
Каналы : 6 каналов
ChannelLayout : C L R Ls Rs LFE
Частота : 48,0 КГц
Частота кадров : 93,750 кадра/сек (512 SPF)
Битовая глубина : 24 бит
Метод сжатия : С потерями
Задержка видео : 11 мс.
Размер потока : 1007 Мбайт (13%)
Заголовок : Original DTS 5.1
Язык : English
Default : Нет
Forced : Нет
Statistics Tags Issue : mkvmerge v7.2.0 ('On Every Street') 64bit built on Sep 13 2014 15:52:10 2015-03-12 19:34:22 / mkvmerge v3.0.0 ('Hang up your Hang-Ups') built on Dec 12 2009 15:20:35 2020-02-02 20:12:55
FromStats_BitRate : 1508999
FromStats_Duration : 01:33:16.214000000
FromStats_FrameCount : 524645
FromStats_StreamSize : 1055585740

Текст #1
Идентификатор : 5
Формат : UTF-8
Идентификатор кодека : S_TEXT/UTF8
Идентификатор кодека/Информация : UTF-8 Plain Text
Заголовок : *liosaa*
Язык : Russian
Default : Нет
Forced : Нет

Текст #2
Идентификатор : 6
Формат : UTF-8
Идентификатор кодека : S_TEXT/UTF8
Идентификатор кодека/Информация : UTF-8 Plain Text
Язык : English
Default : Нет
Forced : Нет

Меню
00:00:00.000 : en:00:00:00.000
00:10:05.958 : en:00:10:05.958
00:24:38.375 : en:00:24:38.375
00:36:22.292 : en:00:36:22.292
00:45:56.000 : en:00:45:56.000
00:57:39.833 : en:00:57:39.833
01:09:51.958 : en:01:09:51.958
01:16:49.042 : en:01:16:49.042
01:29:27.250 : en:01:29:27.250
скриншот  скриншот  скриншот  
pb.wtf



Скачать Протока через торрент https://d.radikal.ru/d31/2002/14/d4db82bb4d74.jpg Скачать фильм Протока через торрент бесплантно в хорошем качестве Описание: Рядовой кино-архивариус Дэвид переезжает вместе с женой-красавицей в новый дом. Идут года, у пары подрастает сынишка, а молодая ... 10 10 5
Торрент: Зарегистрирован [2020-02-04 13:22] · скачан: 45 раз
Статус: T временная
Размер: 7.66 GB
Как cкачать? Как скачать Протока через торрент | qTorrent

28-11-2019 20:33  

Отключить всю рекламу на сайте


    Дорогой пользователь! Огромная просьба, поблагодарите релизера, оцените раздачу и оставьте свои комментарий, если Вы скачали Протока через торрент бесплатно! Внесите свою лепту в развитие PiratBit!
    Комментировать посты могут только пользователи прошедшие не сложную регистрацию
    Показать сообщения:    

    Протока через торрент
    Скачать бесплатно Протока
    Протока скачать торрент
    Протока смотреть онлайн
    Cкачать фильм Протока бесплатно
    Протока скачать торрент в хорошем качестве
    Протока смотреть онлайн бесплатно в хорошем качестве


    Вы не можете начинать темы
    Вы не можете отвечать на сообщения
    Вы не можете редактировать свои сообщения
    Вы не можете удалять свои сообщения
    Вы не можете голосовать в опросах
    Вы не можете прикреплять файлы к сообщениям
    Вы можете скачивать файлы