Ссылка на приватное зеркало нашего сайта всего за 1$. Внимание количество ограничено!!!

2 сезон

iTunes

1 сезон

1

2 сезон

2 сезон

iTunes

1 сезон

RePack

30

Новинка

ВАЖНО

ИГРА 18+

pack

RePack

MK11
pack

Забери бонус

RePack

jed

!!Акция!!

Alien_Rage

RePack

fifa19

RePack

Assassins Creed: Odyssey

RePack

NEED FOR SPEED™ PAYBACK

4 сезон

9 сезон

Бесстыжие 9 сезон

Все сериалы

все сериалы на PB.wtf

RePack

FAR CRY 5
  

21 мост / 21 Bridges (Брайан Кирк) [2019, боевик, триллер, драма, криминал, WEB-DL 1080p, (AMAZON Version)] DUB [iTunes] pb.wtf

21 мост через торрент pb.wtf

Раздают: 2 [ 36 KB/s ]
Размер: 7.13 GB | Добавлен: 9 мес. назад | Торрент скачан:685 раз
Скачать  

04-02-2020 15:57 21 мост Скачать торрент  

21 мост | 21 Bridges
Год выпуска: 2019
Страна: США
Студия: AGBO, Huayi Brothers, MWM Studios
Жанр: боевик, триллер, драма, криминал
Продолжительность: 01:39:26
Перевод: Дублированный | iTunes
Субтитры: Английские

Режиссер: Брайан Кирк

rating

В ролях: Чедвик Боузман, Сиенна Миллер, Тейлор Китч, Дж.К. Симмонс, Стефан Джеймс, Кит Дэвид, Александр Сиддиг, Луис Канселми, Виктория Картахена, Гари Карр

Описание: Он охотится на преступников, которые совершили на Манхэттене дерзкое ограбление, оставив после себя 8 мертвых полицейских. А продажные копы тем временем охотятся на него, пытаясь подставить. Но преступникам не скрыться, так как первый раз в истории Нью-Йорка полиция перекрыла все выходы с острова, в том числе 21 мост.

Качество: WEB-DL 1080p | AMAZON Version
Формат: MKV

Видео: MPEG-4 AVC, 1920x800, 8840 Kbit/s, 23.976 fps
Аудио #01: 48 kHz, AC3, 5.1, 384 Kbps | iTunes | RUS |
Аудио #02: 48 kHz, AC3, 5.1, 384 Kbps | Оригинал | ENG |
Аудио #03: 48 kHz, E-AC3, 5.1, 640 Kbps | Оригинал | ENG |
скриншот  скриншот  скриншот  скриншот  скриншот  

General
Unique ID : 316815838996603944824495667581367733354 (0xEE5882D8A0A03E69F4D96D0614F9CC6A)
Complete name : E:Video11121.Bridges.2019.AMZN.WEB-DL.1080p.seleZen.mkv
Format : Matroska
Format version : Version 4
File size : 7.13 GiB
Duration : 1 h 39 min
Overall bit rate : 10.3 Mb/s
Movie name : 21 Bridges 2019 from селезень
Encoded date : UTC 2020-02-04 15:49:39
Writing application : mkvmerge v40.0.0 ('Old Town Road + Pony') 64-bit
Writing library : libebml v1.3.9 + libmatroska v1.5.2

Video
ID : 1
Format : AVC
Format/Info : Advanced Video Codec
Format profile : High@L4
Format settings : CABAC / 4 Ref Frames
Format settings, CABAC : Yes
Format settings, Reference : 4 frames
Codec ID : V_MPEG4/ISO/AVC
Duration : 1 h 39 min
Bit rate mode : Constant
Bit rate : 8 840 kb/s
Nominal bit rate : 10 000 kb/s
Width : 1 920 pixels
Height : 800 pixels
Display aspect ratio : 2.40:1
Frame rate mode : Constant
Frame rate : 23.976 (24000/1001) FPS
Color space : YUV
Chroma subsampling : 4:2:0
Bit depth : 8 bits
Scan type : Progressive
Bits/(Pixel*Frame) : 0.240
Stream size : 6.15 GiB (86%)
Language : English
Default : Yes
Forced : No
Color range : Limited
Color primaries : BT.709
Transfer characteristics : BT.709
Matrix coefficients : BT.709

Audio #1
ID : 2
Format : AC-3
Format/Info : Audio Coding 3
Commercial name : Dolby Digital
Codec ID : A_AC3
Duration : 1 h 39 min
Bit rate mode : Constant
Bit rate : 384 kb/s
Channel(s) : 6 channels
Channel layout : L R C LFE Ls Rs
Sampling rate : 48.0 kHz
Frame rate : 31.250 FPS (1536 SPF)
Compression mode : Lossy
Stream size : 273 MiB (4%)
Title : iTunes
Language : Russian
Service kind : Complete Main
Default : Yes
Forced : Yes

Audio #2
ID : 3
Format : AC-3
Format/Info : Audio Coding 3
Commercial name : Dolby Digital
Codec ID : A_AC3
Duration : 1 h 39 min
Bit rate mode : Constant
Bit rate : 384 kb/s
Channel(s) : 6 channels
Channel layout : L R C LFE Ls Rs
Sampling rate : 48.0 kHz
Frame rate : 31.250 FPS (1536 SPF)
Compression mode : Lossy
Stream size : 273 MiB (4%)
Title : Original
Language : English
Service kind : Complete Main
Default : No
Forced : No

Audio #3
ID : 4
Format : E-AC-3
Format/Info : Enhanced AC-3
Commercial name : Dolby Digital Plus
Codec ID : A_EAC3
Duration : 1 h 39 min
Bit rate mode : Constant
Bit rate : 640 kb/s
Channel(s) : 6 channels
Channel layout : L R C LFE Ls Rs
Sampling rate : 48.0 kHz
Frame rate : 31.250 FPS (1536 SPF)
Compression mode : Lossy
Stream size : 456 MiB (6%)
Title : Original
Language : English
Service kind : Complete Main
Default : No
Forced : No

Text #1
ID : 5
Format : UTF-8
Codec ID : S_TEXT/UTF8
Codec ID/Info : UTF-8 Plain Text
Duration : 1 h 29 min
Bit rate : 52 b/s
Count of elements : 1113
Stream size : 34.3 KiB (0%)
Title : Full
Language : English
Default : No
Forced : No

Text #2
ID : 6
Format : UTF-8
Codec ID : S_TEXT/UTF8
Codec ID/Info : UTF-8 Plain Text
Duration : 1 h 30 min
Bit rate : 57 b/s
Count of elements : 1275
Stream size : 38.4 KiB (0%)
Title : SDH
Language : English
Default : No
Forced : No

pb.wtf



Скачать 21 мост через торрент https://img15.lostpic.net/2020/02/03/dea7b92f42337d5e5d7dac98f6d1f3bb.jpg Скачать фильм 21 мост через торрент бесплантно в хорошем качестве Описание: Он охотится на преступников, которые совершили на Манхэттене дерзкое ограбление, оставив после себя 8 мертвых полицейских. А ... 10 10 15
Торрент: Зарегистрирован [2020-02-04 15:57] · скачан: 685 раз
Статус: √ проверено
Размер: 7.13 GB
Как cкачать? Как скачать 21 мост через торрент | qTorrent

% Раздел Тема Автор DL S | L
Ultra HD (UHD: 2K, 4K, 8K) — видео сверхвысокой чёткости [ 54 GB ] 21 мост / 21 Bridges [2019 UHD BDRemux 2160p] +AVO [Е.Гаевский] bober100 Скачать
1 | 0
Фильмы 2019-2020 [DVDrip, WEB-DLRip, HDrip] (DUB, MVO) [ 1.42 GB ] 21 мост / 21 Bridges [2019 BDRip] bober100 Скачать
6 | 0
Фильмы [HD 720p, 1080p] (Хороший звук DUB, MVO) [ 4.52 GB ] 21 мост / 21 Bridges [2019 BDRip 720p] bober100 Скачать
1 | 0
Фильмы [HD 720p, 1080p] (Хороший звук DUB, MVO) [ 10.85 GB ] 21 мост / 21 Bridges [2019 BDRip 1080p] bober100 Скачать
4 | 0
Фильмы (WEB-DL 720p, 1080p) [ 3.72 GB ] 21 мост / 21 Bridges [2019 WEB-DL 1080p] bober100 Скачать
3 | 0
Фильмы (Blu-ray, BD-Remux, HDDVD) [ 24.56 GB ] 21 мост / 21 Bridges [2019 BD Remux 1080p] bober100 Скачать
1 | 0
Фильмы 2019-2020 [DVDrip, WEB-DLRip, HDrip] (DUB, MVO) [ 750 MB ] 21 мост / 21 Bridges [2019 WEB-DLRip] bober100 Скачать
1 | 0

28-11-2019 20:33  

Отключить всю рекламу на сайте

05-02-2020 05:08 21 мост Скачать торрент  

Зачётный боевичок. Смотреть можноpb.wtf



    Дорогой пользователь! Огромная просьба, поблагодарите релизера, оцените раздачу и оставьте свои комментарий, если Вы скачали 21 мост через торрент бесплатно! Внесите свою лепту в развитие PiratBit!
    Комментировать посты могут только пользователи прошедшие не сложную регистрацию
    Показать сообщения:    

    21 мост через торрент
    Скачать бесплатно 21 мост
    21 мост скачать торрент
    21 мост смотреть онлайн
    Cкачать фильм 21 мост бесплатно
    21 мост скачать торрент в хорошем качестве
    21 мост смотреть онлайн бесплатно в хорошем качестве


    Вы не можете начинать темы
    Вы не можете отвечать на сообщения
    Вы не можете редактировать свои сообщения
    Вы не можете удалять свои сообщения
    Вы не можете голосовать в опросах
    Вы не можете прикреплять файлы к сообщениям
    Вы можете скачивать файлы