Ссылка на приватное зеркало нашего сайта всего за 1$. Внимание количество ограничено!!!

2 сезон

iTunes

1 сезон

1

2 сезон

2 сезон

iTunes

1 сезон

RePack

30

Ultimate

ВАЖНО

ИГРА 18+

pack

RePack

MK11
pack

Забери бонус

RePack

jed

!!Акция!!

Alien_Rage

RePack

fifa19

RePack

Assassins Creed: Odyssey

RePack

NEED FOR SPEED™ PAYBACK

4 сезон

9 сезон

Бесстыжие 9 сезон

Все сериалы

все сериалы на PB.wtf

RePack

FAR CRY 5
  

Жизнь на повторе / Un homme pressé (Эрве Мимран) [2018, Драма, комедия, BD Remux 1080p] MVO [iTunes] pb.wtf

Жизнь на повторе через торрент pb.wtf

Размер: 22.61 GB | Добавлен: 9 мес. назад | Торрент скачан:10 раз
Скачать  

04-02-2020 18:05 Жизнь на повторе Скачать торрент  

Жизнь на повторе | Un homme pressé
Год выпуска: 2018
Страна: Франция
Студия: Albertine Productions, Gaumont, France 2 Cinéma
Жанр: Драма, комедия
Продолжительность: 01:40:02
Перевод: Профессиональный многоголосый | iTunes
Субтитры: отсутствуют

Режиссер: Эрве Мимран

rating

В ролях: Фабрис Лукини, Лейла Бехти, Ребекка Мардер, Игорь Готсман, Клеманс Массар, Ив Жак, Миша Лекот, Фредерик Тирмон, Эвелин Диди, Эрик Ваплер

Описание: Ален — бизнесмен и блестящий оратор. Он вечно в движении, и никто не может заставить его остановиться и передохнуть… пока однажды его не поражает инсульт. Двигательные функции восстановились быстро, чего нельзя сказать о речи и памяти… Реабилитацией Алена занимается молодой логопед Жанна, и им обоим придется набраться сил и терпения, а также как следует узнать друг друга, чтобы победить последствия болезни и, наконец, найти оптимальный ритм для жизни.

Качество: BD Remux 1080p
Формат: MKV

Видео: MPEG-4 AVC, 1920x1080, 30.0 Mbit/s, 23.976 fps
Аудио #01: 48 kHz, AC3, 5.1, 384 Kbps | iTunes | RUS |
Аудио #02: 48 kHz, DTS-HD MA, 5.1, 1968 Kbps | Оригинал | FRE |
скриншот  скриншот  скриншот  скриншот  скриншот  

General
Unique ID : 305159905319646220035090759473581928409 (0xE593A8F25CA0E3896182CBC979062FD9)
Complete name : E:Video111Un.Homme.Presse.2018.BDREMUX.1080p.seleZen.mkv
Format : Matroska
Format version : Version 4
File size : 22.6 GiB
Duration : 1 h 40 min
Overall bit rate mode : Variable
Overall bit rate : 32.4 Mb/s
Movie name : Un Homme Presse 2018 from селезень
Encoded date : UTC 2020-02-04 17:47:09
Writing application : mkvmerge v40.0.0 ('Old Town Road + Pony') 64-bit
Writing library : libebml v1.3.9 + libmatroska v1.5.2

Video
ID : 1
Format : AVC
Format/Info : Advanced Video Codec
Format profile : High@L4.1
Format settings : CABAC / 4 Ref Frames
Format settings, CABAC : Yes
Format settings, Reference : 4 frames
Format settings, GOP : M=3, N=24
Codec ID : V_MPEG4/ISO/AVC
Duration : 1 h 40 min
Bit rate mode : Variable
Bit rate : 30.0 Mb/s
Maximum bit rate : 35.0 Mb/s
Width : 1 920 pixels
Height : 1 080 pixels
Display aspect ratio : 16:9
Frame rate mode : Constant
Frame rate : 24.000 FPS
Standard : NTSC
Color space : YUV
Chroma subsampling : 4:2:0
Bit depth : 8 bits
Scan type : Progressive
Bits/(Pixel*Frame) : 0.603
Stream size : 21.0 GiB (93%)
Language : French
Default : Yes
Forced : No
Color range : Limited
Color primaries : BT.709
Transfer characteristics : BT.709
Matrix coefficients : BT.709

Audio #1
ID : 2
Format : AC-3
Format/Info : Audio Coding 3
Commercial name : Dolby Digital
Codec ID : A_AC3
Duration : 1 h 40 min
Bit rate mode : Constant
Bit rate : 384 kb/s
Channel(s) : 6 channels
Channel layout : L R C LFE Ls Rs
Sampling rate : 48.0 kHz
Frame rate : 31.250 FPS (1536 SPF)
Compression mode : Lossy
Stream size : 275 MiB (1%)
Title : iTunes
Language : Russian
Service kind : Complete Main
Default : Yes
Forced : Yes

Audio #2
ID : 3
Format : DTS XLL
Format/Info : Digital Theater Systems
Commercial name : DTS-HD Master Audio
Codec ID : A_DTS
Duration : 1 h 40 min
Bit rate mode : Variable
Bit rate : 1 968 kb/s
Channel(s) : 6 channels
Channel layout : C L R Ls Rs LFE
Sampling rate : 48.0 kHz
Frame rate : 93.750 FPS (512 SPF)
Bit depth : 16 bits
Compression mode : Lossless
Stream size : 1.37 GiB (6%)
Title : Original
Language : French
Default : No
Forced : No

Menu
00:00:00.000 : en:00:00:00.000
00:07:03.792 : en:00:07:03.792
00:16:15.875 : en:00:16:15.875
00:23:28.500 : en:00:23:28.500
00:30:39.667 : en:00:30:39.667
00:38:54.583 : en:00:38:54.583
00:47:30.792 : en:00:47:30.792
00:55:40.417 : en:00:55:40.417
01:04:38.667 : en:01:04:38.667
01:14:06.917 : en:01:14:06.917
01:26:59.792 : en:01:26:59.792
01:36:26.583 : en:01:36:26.583

pb.wtf



Скачать Жизнь на повторе через торрент https://a.radikal.ru/a13/2002/33/b81e21329c80.jpg Скачать фильм Жизнь на повторе через торрент бесплантно в хорошем качестве Описание: Ален — бизнесмен и блестящий оратор. Он вечно в движении, и никто не может заставить его остановиться и передохнуть… пока однажды ... 10 10 3
Торрент: Зарегистрирован [2020-02-04 18:05] · скачан: 10 раз
Статус: √ проверено
Размер: 22.61 GB
Как cкачать? Как скачать Жизнь на повторе через торрент | qTorrent

% Раздел Тема Автор DL S | L
Фильмы 2018 [DVDrip, WEB-DLRip, HDrip] (DUB, MVO) [ 747 MB ] Жизнь на повторе / Un homme pressé [2018 HDRip] MVO bober100 Скачать
1 | 0
Фильмы [HD 720p, 1080p] (Хороший звук DUB, MVO) [ 8.12 GB ] Жизнь на повторе / Un homme pressé [2018 BDRip 1080p] MVO bober100 Скачать
1 | 0
Фильмы 2018 [DVDrip, WEB-DLRip, HDrip] (DUB, MVO) [ 1.46 GB ] Жизнь на повторе / Un homme pressé [2018 BDRip] MVO bober100 Скачать
1 | 0
Фильмы [HD 720p, 1080p] (Хороший звук DUB, MVO) [ 4.55 GB ] Жизнь на повторе / Un homme pressé [2018 BDRip 720p] MVO bober100 Скачать
1 | 0

28-11-2019 20:33  

Отключить всю рекламу на сайте

    Дорогой пользователь! Огромная просьба, поблагодарите релизера, оцените раздачу и оставьте свои комментарий, если Вы скачали Жизнь на повторе через торрент бесплатно! Внесите свою лепту в развитие PiratBit!
    Комментировать посты могут только пользователи прошедшие не сложную регистрацию
    Показать сообщения:    

    Жизнь на повторе через торрент
    Скачать бесплатно Жизнь на повторе
    Жизнь на повторе скачать торрент
    Жизнь на повторе смотреть онлайн
    Cкачать фильм Жизнь на повторе бесплатно
    Жизнь на повторе скачать торрент в хорошем качестве
    Жизнь на повторе смотреть онлайн бесплатно в хорошем качестве


    Вы не можете начинать темы
    Вы не можете отвечать на сообщения
    Вы не можете редактировать свои сообщения
    Вы не можете удалять свои сообщения
    Вы не можете голосовать в опросах
    Вы не можете прикреплять файлы к сообщениям
    Вы можете скачивать файлы