Anonymous, доброй ночи, присоединяйтесь к нам в Telegram!, здесь всегда актуальный адрес сайта, оперативная поддержка и многое другое!

>

5.5

iTunes

7.4

iTunes

7.9

iTunes

1

7.7

1 сезон

6.8

iTunes

7.3

1 сезон

13

6.7

1 сезон

8.3

RePack

30

ULTIMATE

pack

9.9

Лицензия

ВАЖНО

ИГРА 18+

pack

7.3

RePack

MK11

7.7

RePack

jed

7.8

RePack

fifa19

8.5

RePack

RDR2

RePack

NEED FOR SPEED™ PAYBACK

4 сезон

9 сезон

Бесстыжие 9 сезон

Все сериалы

все сериалы на PB.wtf

RePack

FAR CRY 5

Anonymous, доброй ночи, мы катастрофически не успеваем собрать деньги на оплату серверов, помогите нам пожалуйста 5,10,15р., для нас важна любая помощь . В качестве благодарности мы отключим Вам всю рекламу на сайте (укажите свой ник в строку Ваше имя)!

×
  
Magnet ссылка

Фитнес / Королева фитнеса / Сезон: 3 / Серии: 1-20 из 20 (Кирилл Васильев) [2020, комедия, WEB-DLRip] pb.wtf

Фитнес через торрент pb.wtf

Раздают: 1 [ 0 KB/s ]
Размер: 6.84 GB | Добавлен: 1 год 7 мес. назад | Торрент скачан:143 раза
Смотреть онлайн Фитнес | Скачать    Ребята, помогите собрать деньги на оплату серверов!!!

05-02-2020 04:04 Фитнес Скачать торрент  

Фитнес | Королева фитнеса Год выпуска: 2020
Страна: Россия
Жанр: комедия
Продолжительность: ~ 00:25:00 (Серия)
Субтитры: отсутствуют

Режиссер: Кирилл Васильев



В ролях: Софья Зайка, Светлана Камынина, Илья Глинников, Михаил Трухин, Татьяна Храмова (II), Роман Курцын, Борис Дергачёв, Екатерина Щербакова, Кристина Юдичева, Марианна Шульц, Ольга Баранова, Евгений Михеев, Дмитрий Чеботарёв, Алексей Демидов, Эвелина Блёданс

Описание: Новая владелица «СуперФита» Бэлла Ринатовна берет управление клубом под жесткий контроль. Бескомпромиссная хозяйка похоронного бюро намерена извлечь из нового бизнеса максимум пользы. Поэтому в клубе стремительно меняются правила, а в зале внезапно появляется боксерский ринг. Именно на нем Асе Королевой предстоит побороться с Бэллой за судьбу клуба, а, возможно, и за свое будущее. И, похоже, у девушки почти нет шансов победить опытного спарринг-партнера. К счастью, в клубе появляется тренер по боксу, который готов подготовить Асю. Но вспыльчивый характер и поведение раздолбая очень быстро ставят работу тренера под угрозу.

Качество: WEB-DLRip
Формат: AVI

Видео: 720x400 (1.80:1), 25 fps, XviD ~1850 kbps avg, 0.256 bit/pixel
Аудио: 48.0 kHz, AC3 Dolby Digital, 2/0 (L,R) ch, ~ 192 kbps
скриншот  скриншот  скриншот  скриншот  скриншот  

General
Complete name : D:\Fitnes.S03.WEB-DLRip.25Kuzmich\Fitnes.s03.e01.WEB-DLRip.25Kuzmich.avi
Format : AVI
Format/Info : Audio Video Interleave
File size : 350 MiB
Duration : 23 min 56 s
Overall bit rate : 2 046 kb/s
Writing application : VirtualDubMod 1.5.10.3 | www.virtualdub-fr.org || (build 2550/release)
Writing library : VirtualDubMod build 2550/release

Video
ID : 0
Format : MPEG-4 Visual
Format profile : Advanced Simple@L5
Format settings : BVOP1
Format settings, BVOP : 1
Format settings, QPel : No
Format settings, GMC : No warppoints
Format settings, Matrix : Default (MPEG)
Codec ID : XVID
Codec ID/Hint : XviD
Duration : 23 min 56 s
Bit rate : 1 844 kb/s
Width : 720 pixels
Height : 400 pixels
Display aspect ratio : 16:9
Frame rate : 25.000 FPS
Color space : YUV
Chroma subsampling : 4:2:0
Bit depth : 8 bits
Scan type : Progressive
Compression mode : Lossy
Bits/(Pixel*Frame) : 0.256
Stream size : 316 MiB (90%)
Writing library : XviD 73

Audio
ID : 1
Format : AC-3
Format/Info : Audio Coding 3
Codec ID : 2000
Duration : 23 min 56 s
Bit rate mode : Constant
Bit rate : 192 kb/s
Channel(s) : 2 channels
Channel positions : Front: L R
Sampling rate : 48.0 kHz
Frame rate : 31.250 FPS (1536 SPF)
Bit depth : 16 bits
Compression mode : Lossy
Stream size : 32.9 MiB (9%)
Alignment : Split accross interleaves
Interleave, duration : 40 ms (1.00 video frame)
Interleave, preload duratio : 500 ms
Service kind : Complete Main

Внимание! Раздача ведётся путём добавления новых серий; при каждом добавлении создаётся новый торрент. Чтобы начать докачку новой серии, пользователям необходимо сделать следующее:
Остановить скачивание.
Удалить старый торрент у себя из клиента (старые серии удалять не надо).
Скачать новый торрент и запустить его у себя в клиенте вместо старого, при этом указать клиенту путь в старую папку куда и должно происходить скачивание новых серий.

Ваш клиент при этом должен произвести хеширование (проверку) старой папки (если не производит сам - помогите ему сделать это), и будет докачивать только те серии которых у вас ещё нет. Старые серии при этом не удаляются, а продолжают раздаваться!
Eсли вы уже удалили старые серии, то предотвратить повторную закачку старых серий можно, отжав галочку в соответсвующих местах при запуске нового торрента. По возможности, желательно не удалять старые серии как можно дольше чтобы релизёр не столько продолжал раздавать старые серии, а смог сконцентрироваться на новых.
pb.wtf



Скачать Фитнес через торрент https://i111.fastpic.ru/big/2020/0205/b8/14fa02db22c48616f5730465507829b8.jpg Скачать, смотреть онлайн Фитнес бесплантно в хорошем качестве Описание: Новая владелица «СуперФита» Бэлла Ринатовна берет управление клубом под жесткий контроль. Бескомпромиссная хозяйка похоронного ... 8.5 10 8
Торрент: Зарегистрирован [2020-03-10 02:29] · скачан: 143 раз
Статус: √ проверено
Размер: 6.84 GB
Как cкачать? Как скачать Фитнес через торрент | UTorrent

% Раздел Тема Автор DL S | L
TNT serials [ 15.37 GB ] Фитнес / Королева фитнеса / Сезон: 3 / Серии: 1-20 из 20 [2020 WEB-DL 1080p] bober100 Скачать
1 | 0
TNT serials [ 9.97 GB ] Фитнес / Королева фитнеса / Сезон: 3 / Серии: 1-20 из 20 [2020 WEB-DL 720p] bober100 Скачать
1 | 0
TNT serials [ 5.81 GB ] Фитнес / Королева фитнеса / Сезон: 3 / Серии: 1-20 из 20 [2020 WEB-DLRip-AVC] bober100 Скачать
1 | 0

28-11-2019 20:33  

Отключить всю рекламу на сайте

    Дорогой пользователь! Огромная просьба, поблагодарите релизера, оцените раздачу и оставьте свои комментарий, если Вы скачали Фитнес через торрент бесплатно!
    Комментировать посты могут только пользователи прошедшие не сложную регистрацию
    Показать сообщения:    

    Фитнес через торрент
    Скачать бесплатно Фитнес
    Фитнес скачать торрент
    Фитнес смотреть онлайн
    Cкачать фильм Фитнес бесплатно
    Фитнес скачать торрент в хорошем качестве
    Фитнес смотреть онлайн бесплатно в хорошем качестве


    Вы не можете начинать темы
    Вы не можете отвечать на сообщения
    Вы не можете редактировать свои сообщения
    Вы не можете удалять свои сообщения
    Вы не можете голосовать в опросах
    Вы не можете прикреплять файлы к сообщениям
    Вы можете скачивать файлы