Anonymous, добрый вечер, присоединяйтесь к нам в Telegram!, здесь всегда актуальный адрес сайта, оперативная поддержка и многое другое!

>

5.5

iTunes

7.4

iTunes

7.9

iTunes

1

7.7

1 сезон

6.8

iTunes

7.3

1 сезон

13

6.7

1 сезон

8.3

RePack

30

ULTIMATE

pack

9.9

Лицензия

ВАЖНО

ИГРА 18+

pack

7.3

RePack

MK11

7.7

RePack

jed

7.8

RePack

fifa19

8.5

RePack

RDR2

RePack

NEED FOR SPEED™ PAYBACK

4 сезон

9 сезон

Бесстыжие 9 сезон

Все сериалы

все сериалы на PB.wtf

RePack

FAR CRY 5

Anonymous, добрый вечер, мы катастрофически не успеваем собрать деньги на оплату серверов, помогите нам пожалуйста 5,10,15р., для нас важна любая помощь . В качестве благодарности мы отключим Вам всю рекламу на сайте (укажите свой ник в строку Ваше имя)!

×
  
Magnet ссылка

Фитнес / Королева фитнеса / Сезон: 3 / Серии: 1-20 из 20 (Кирилл Васильев) [2020, комедия, WEB-DL 1080p] pb.wtf

Фитнес через торрент pb.wtf

Раздают: 1 [ 0 KB/s ]
Размер: 15.37 GB | Добавлен: 1 год 7 мес. назад | Торрент скачан:80 раз
Смотреть онлайн Фитнес | Скачать    Ребята, помогите собрать деньги на оплату серверов!!!

05-02-2020 04:04 Фитнес Скачать торрент  

Фитнес | Королева фитнеса Год выпуска: 2020
Страна: Россия
Жанр: комедия
Продолжительность: ~ 00:25:00 (Серия)
Субтитры: отсутствуют

Режиссер: Кирилл Васильев



В ролях: Софья Зайка, Светлана Камынина, Илья Глинников, Михаил Трухин, Татьяна Храмова (II), Роман Курцын, Борис Дергачёв, Екатерина Щербакова, Кристина Юдичева, Марианна Шульц, Ольга Баранова, Евгений Михеев, Дмитрий Чеботарёв, Алексей Демидов, Эвелина Блёданс

Описание: Новая владелица «СуперФита» Бэлла Ринатовна берет управление клубом под жесткий контроль. Бескомпромиссная хозяйка похоронного бюро намерена извлечь из нового бизнеса максимум пользы. Поэтому в клубе стремительно меняются правила, а в зале внезапно появляется боксерский ринг. Именно на нем Асе Королевой предстоит побороться с Бэллой за судьбу клуба, а, возможно, и за свое будущее. И, похоже, у девушки почти нет шансов победить опытного спарринг-партнера. К счастью, в клубе появляется тренер по боксу, который готов подготовить Асю. Но вспыльчивый характер и поведение раздолбая очень быстро ставят работу тренера под угрозу.

Качество: WEB-DL 1080p
Формат: MKV

Видео: MPEG4 AVC Video, H264, 16:9, 1920x1072, 25 fps, ~4500 kbps, 0.087 bit/pixel
Аудио: 48.0 kHz, AC3 Dolby Digital, 2/0 (L,R) ch, ~ 192 kbps
скриншот  скриншот  скриншот  скриншот  скриншот  

General
Unique ID : 205758549281455886626275404869658188797 (0x9ACBA7B71711033CAC8FC15FF0AB9BFD)
Complete name : D:\Fitnes.S03.2020.WEB-DL.(1080p).Getty\Fitnes.s03e01.2020.WEB-DL.(1080p).Getty.mkv
Format : Matroska
Format version : Version 4 / Version 2
File size : 796 MiB
Duration : 23 min 56 s
Overall bit rate mode : Variable
Overall bit rate : 4 647 kb/s
Movie name : Fitnes.s03e01.2020.WEB-DL.(1080p).Getty
Encoded date : UTC 2020-02-07 15:32:44
Writing application : mkvmerge v7.8.0 ('River Man') 32bit built on Mar 27 2015 16:18:02
Writing library : libebml v1.3.1 + libmatroska v1.4.2

Video
ID : 1
Format : AVC
Format/Info : Advanced Video Codec
Format profile : High@L4
Format settings : CABAC / 1 Ref Frames
Format settings, CABAC : Yes
Format settings, ReFrames : 1 frame
Format settings, GOP : M=1, N=50
Codec ID : V_MPEG4/ISO/AVC
Duration : 23 min 56 s
Bit rate mode : Variable
Bit rate : 4 454 kb/s
Maximum bit rate : 4 500 kb/s
Width : 1 920 pixels
Height : 1 072 pixels
Display aspect ratio : 16:9
Frame rate mode : Constant
Frame rate : 25.000 FPS
Color space : YUV
Chroma subsampling : 4:2:0
Bit depth : 8 bits
Scan type : Progressive
Bits/(Pixel*Frame) : 0.087
Stream size : 763 MiB (96%)
Default : Yes
Forced : No

Audio
ID : 2
Format : AC-3
Format/Info : Audio Coding 3
Codec ID : A_AC3
Duration : 23 min 56 s
Bit rate mode : Constant
Bit rate : 192 kb/s
Channel(s) : 2 channels
Channel positions : Front: L R
Sampling rate : 48.0 kHz
Frame rate : 31.250 FPS (1536 SPF)
Bit depth : 16 bits
Compression mode : Lossy
Stream size : 32.9 MiB (4%)
Service kind : Complete Main
Default : Yes
Forced : No

Внимание! Раздача ведётся путём добавления новых серий; при каждом добавлении создаётся новый торрент. Чтобы начать докачку новой серии, пользователям необходимо сделать следующее:
Остановить скачивание.
Удалить старый торрент у себя из клиента (старые серии удалять не надо).
Скачать новый торрент и запустить его у себя в клиенте вместо старого, при этом указать клиенту путь в старую папку куда и должно происходить скачивание новых серий.

Ваш клиент при этом должен произвести хеширование (проверку) старой папки (если не производит сам - помогите ему сделать это), и будет докачивать только те серии которых у вас ещё нет. Старые серии при этом не удаляются, а продолжают раздаваться!
Eсли вы уже удалили старые серии, то предотвратить повторную закачку старых серий можно, отжав галочку в соответсвующих местах при запуске нового торрента. По возможности, желательно не удалять старые серии как можно дольше чтобы релизёр не столько продолжал раздавать старые серии, а смог сконцентрироваться на новых.
pb.wtf



Скачать Фитнес через торрент https://i111.fastpic.ru/big/2020/0205/b8/14fa02db22c48616f5730465507829b8.jpg Скачать, смотреть онлайн Фитнес бесплантно в хорошем качестве Описание: Новая владелица «СуперФита» Бэлла Ринатовна берет управление клубом под жесткий контроль. Бескомпромиссная хозяйка похоронного ... 9.1 10 13
Торрент: Зарегистрирован [2020-03-08 03:34] · скачан: 80 раз
Статус: √ проверено
Размер: 15.37 GB
Как cкачать? Как скачать Фитнес через торрент | UTorrent

% Раздел Тема Автор DL S | L
TNT serials [ 9.97 GB ] Фитнес / Королева фитнеса / Сезон: 3 / Серии: 1-20 из 20 [2020 WEB-DL 720p] bober100 Скачать
1 | 0
TNT serials [ 5.81 GB ] Фитнес / Королева фитнеса / Сезон: 3 / Серии: 1-20 из 20 [2020 WEB-DLRip-AVC] bober100 Скачать
1 | 0
TNT serials [ 6.84 GB ] Фитнес / Королева фитнеса / Сезон: 3 / Серии: 1-20 из 20 [2020 WEB-DLRip] bober100 Скачать
1 | 0


Последний раз редактировалось: bober100 (2020-03-08 03:34), всего редактировалось 13 раз(а)

28-11-2019 20:33  

Отключить всю рекламу на сайте

05-02-2020 06:23 Фитнес Скачать торрент  

Хоспади, для кого они это снимают?pb.wtf



    Дорогой пользователь! Огромная просьба, поблагодарите релизера, оцените раздачу и оставьте свои комментарий, если Вы скачали Фитнес через торрент бесплатно!
    Комментировать посты могут только пользователи прошедшие не сложную регистрацию
    Показать сообщения:    

    Фитнес через торрент
    Скачать бесплатно Фитнес
    Фитнес скачать торрент
    Фитнес смотреть онлайн
    Cкачать фильм Фитнес бесплатно
    Фитнес скачать торрент в хорошем качестве
    Фитнес смотреть онлайн бесплатно в хорошем качестве


    Вы не можете начинать темы
    Вы не можете отвечать на сообщения
    Вы не можете редактировать свои сообщения
    Вы не можете удалять свои сообщения
    Вы не можете голосовать в опросах
    Вы не можете прикреплять файлы к сообщениям
    Вы можете скачивать файлы