Ссылка на приватное зеркало нашего сайта всего за 1$. Внимание количество ограничено!!!

2 сезон

iTunes

1 сезон

1

iTunes

iTunes

iTunes

1 сезон

RePack

30

ИГРА 18+

pack

ВАЖНО

!!Акция!!

Alien_RageХит недели

RePack

MK11
pack

Забери бонус

RePack

jed

!!Акция!!

Alien_Rage

RePack

fifa19

RePack

Assassins Creed: Odyssey

RePack

NEED FOR SPEED™ PAYBACK

4 сезон

9 сезон

Бесстыжие 9 сезон

Все сериалы

все сериалы на PB.wtf

RePack

FAR CRY 5
  

Альфа-дом / Alpha House / Сезон: 1 / Серии: 1-11 из 11 (Адам Бернштейн, Майкл Майер, Эндрю МакКарти) [2013, Комедия, драма, WEBRip 1080p] [MVO] (TVShows) pb.wtf

Альфа-дом через торрент pb.wtf

Размер: 21.34 GB | Добавлен: 8 мес. назад | Торрент скачан:3 раза
Скачать  

05-02-2020 18:27 Альфа-дом Скачать торрент  

Альфа-дом / Alpha House
Год выпуска: 2013
Страна: США
Жанр: Комедия, драма
Продолжительность: ~00:25:00
Перевод: Профессиональный (многоголосый закадровый) TVShows
Режиссёр: Адам Бернштейн, Майкл Майер, Эндрю МакКарти

В ролях: Коби Либий, Джон Гудман, Брук Блум, Алисия Сэйбл, Джули Уайт, Марк Консуэлос, Мэтт Мэллой, Бен Рамика, Яра Мартинес, Кларк Джонсон
Описание: Сериал рассказывает о жизни четырех сенаторов, которые живут в Вашингтоне в арендованном доме все вместе, во время заседаний американского конгресса. Именно здесь они чувствуют себя в безопасности и могут обсудить важные государственные дела, не опасаясь прослушки. Но о месте проживания политиков становится известно корреспондентке известного издания.
rating
Сэмпл: https://www.sendspace.com/file/dm849c
Качество: WEBRip 1080p
Контейнер: MKV
Видео: MPEG-4 AVC, 1920x1080, 23.976 fps, ~9851 kbps
Аудио 1: Русский, AC3, 48 kHz, 6 ch, 384 kbps
Аудио 2: Английский, AAC, 48 kHz, 6 ch, 576 kbps
Субтитры: Отсутствуют
Реклама: Отсутствует
General
Unique ID : 322875876434804486405224997906897554881 (0xF2E7A1C288C13F95F393A6B3E4C9CDC1)
Complete name : Alpha.House.S01E01.1080p.TVShows.mkv
Format : Matroska
Format version : Version 4
File size : 1.95 GiB
Duration : 24 min 33 s
Overall bit rate : 11.4 Mb/s
Encoded date : UTC 2020-02-03 14:07:31
Writing application : mkvmerge v33.1.0 ('Primrose') 64-bit
Writing library : libebml v1.3.7 + libmatroska v1.5.0

Video
ID : 1
Format : AVC
Format/Info : Advanced Video Codec
Format profile : High@L4.1
Format settings : CABAC / 4 Ref Frames
Format settings, CABAC : Yes
Format settings, Reference frames : 4 frames
Codec ID : V_MPEG4/ISO/AVC
Duration : 24 min 25 s
Bit rate : 9 851 kb/s
Width : 1 920 pixels
Height : 1 080 pixels
Display aspect ratio : 16:9
Frame rate mode : Constant
Frame rate : 23.976 (24000/1001) FPS
Color space : YUV
Chroma subsampling : 4:2:0
Bit depth : 8 bits
Scan type : Progressive
Bits/(Pixel*Frame) : 0.198
Stream size : 1.68 GiB (86%)
Language : English
Default : Yes
Forced : No
Color range : Limited
Color primaries : BT.709
Transfer characteristics : BT.709
Matrix coefficients : BT.709

Audio #1
ID : 2
Format : AC-3
Format/Info : Audio Coding 3
Commercial name : Dolby Digital
Codec ID : A_AC3
Duration : 24 min 33 s
Bit rate mode : Constant
Bit rate : 384 kb/s
Channel(s) : 6 channels
Channel layout : L R C LFE Ls Rs
Sampling rate : 48.0 kHz
Frame rate : 31.250 FPS (1536 SPF)
Compression mode : Lossy
Delay relative to video : 16 ms
Stream size : 67.5 MiB (3%)
Title : TVShows
Language : Russian
Service kind : Complete Main
Default : Yes
Forced : Yes

Audio #2
ID : 3
Format : AAC LC
Format/Info : Advanced Audio Codec Low Complexity
Codec ID : A_AAC-2
Duration : 24 min 25 s
Bit rate : 576 kb/s
Channel(s) : 6 channels
Channel layout : C L R Ls Rs LFE
Sampling rate : 48.0 kHz
Frame rate : 46.875 FPS (1024 SPF)
Compression mode : Lossy
Stream size : 100 MiB (5%)
Title : Original
Language : English
Default : No
Forced : No

Audio #3
ID : 4
Format : AAC LC
Format/Info : Advanced Audio Codec Low Complexity
Codec ID : A_AAC-2
Duration : 24 min 25 s
Bit rate : 637 kb/s
Channel(s) : 6 channels
Channel layout : C L R Ls Rs LFE
Sampling rate : 48.0 kHz
Frame rate : 46.875 FPS (1024 SPF)
Compression mode : Lossy
Stream size : 111 MiB (6%)
Language : English
Default : No
Forced : No
скриншот  скриншот  скриншот  
pb.wtf



Скачать Альфа-дом через торрент https://a.radikal.ru/a38/2002/aa/b51d1d80855b.jpg Скачать фильм Альфа-дом через торрент бесплантно в хорошем качестве Описание: Сериал рассказывает о жизни четырех сенаторов, которые живут в Вашингтоне в арендованном доме все вместе, во время заседаний ... 10 10 1
Торрент: Зарегистрирован [2020-02-05 18:27] · скачан: 3 раз
Статус: √ проверено
Размер: 21.34 GB
Как cкачать? Как скачать Альфа-дом через торрент | qTorrent

% Раздел Тема Автор DL S | L
Зарубежные сериалы [ 2.75 GB ] Альфа-дом / Alpha House / Сезон: 1 / Серии: 1-11 из 11 [2013 WEB-DLRip] DVO + Original Assasinca Скачать
1 | 0

28-11-2019 20:33  

Отключить всю рекламу на сайте

    Дорогой пользователь! Огромная просьба, поблагодарите релизера, оцените раздачу и оставьте свои комментарий, если Вы скачали Альфа-дом через торрент бесплатно! Внесите свою лепту в развитие PiratBit!
    Комментировать посты могут только пользователи прошедшие не сложную регистрацию
    Показать сообщения:    

    Альфа-дом через торрент
    Скачать бесплатно Альфа-дом
    Альфа-дом скачать торрент
    Альфа-дом смотреть онлайн
    Cкачать фильм Альфа-дом бесплатно
    Альфа-дом скачать торрент в хорошем качестве
    Альфа-дом смотреть онлайн бесплатно в хорошем качестве


    Вы не можете начинать темы
    Вы не можете отвечать на сообщения
    Вы не можете редактировать свои сообщения
    Вы не можете удалять свои сообщения
    Вы не можете голосовать в опросах
    Вы не можете прикреплять файлы к сообщениям
    Вы можете скачивать файлы