Всегда рабочее зеркало без VPN и Proxy просто перед .vidak.icu напиши любое слово или цифру, Пример http://pbt1.vidak.icu

MVO

2 сезон

1 сезон

1

1 сезон

iTunes

2 сезон

13

1 сезон

Deluxe

pack

Рекомендуем

Пиратка

30

ВАЖНО

RePack

MK11

RePack

jed

RePack

fifa19

RePack

RDR2

RePack

NEED FOR SPEED™ PAYBACK

Кинопоиск HD

6 сезон

 Острые козырьки 6 сезон

Все сериалы

все сериалы на PB.wtf

RePack

FAR CRY 5

Anonymous, нам критически не хватает 5601 руб. на оплату серверов и переферии за Апрель, помоги нам пожалуйста, вся надежда только на тебя. В благодарность мы отключим тебе всю рекламу на сайте!

×
  
Magnet ссылка

Зеленее травы / Greener Grass (Жослин ДеБоэр, Доун Люббе) [2019, Комедия, BDRip 1080p] AVO [А.Важенин [BadBajo] pb.wtf

Зеленее травы через торрент pb.wtf

Размер: 8.97 GB | Добавлен: 2 года 3 мес. назад | Торрент скачан:8 раз
Смотреть онлайн Зеленее травы | Скачать    Ребята, помогите собрать деньги на оплату серверов!!!

06-02-2020 00:18 Зеленее травы Скачать торрент  

Зеленее травы l Greener Grass
Год выпуска: 2019
Страна: США
Студия: Gulp Splash Productions, Vanishing Angle
Жанр: Комедия
Продолжительность: 01:36:06
Перевод: Авторский (одноголосый) |
Субтитры: Английские

Режиссер: Жослин ДеБоэр, Доун Люббе

rating


В ролях: Жослин ДеБоэр, Доун Люббе, Бек Беннетт, Нил Кэйси, Мэри Холлэнд, Д’Арси Карден, Джулиан Хиллиард, Яница Браво, Дот-Мари Джонс, Эшер Майлз Фаллика

Описание: Две богатые домохозяйки живут беззаботной жизнью в американском пригороде. Одна из них — Джил — сначала дарит ребёнка своей подруге, а потом её сын превращается в собаку. Что дальше? А дальше ещё 99,7% абсурда.

Качество: BDRip 1080p
Формат: MKV

Видео: 1920Х816, ~9 890 Kbps, 23.976 (24000/1001) FPS
Аудио#1: Русский: DTS, 6 ch, 1 509 Kbps (BadBajo)
Аудио#2: Русский: AC3, 6 ch, 448 Kbps (BadBajo)
Аудио#3: Английский: DTS, 6 ch, 1 509 Kbps
скриншот  скриншот  скриншот  

скриншот  скриншот  скриншот  

Общее
Уникальный идентификатор : 93241893279043554744837684785903258228 (0x4625BC4562D34825F57EABD845634A74)
Полное имя : D:\Greener.Grass.2019.LIMITED.1080p.BluRay._rus_BadBajo.mkv
Формат : Matroska
Версия формата : Version 4 / Version 2
Размер файла : 8,97 Гбайт
Продолжительность : 1 ч. 36 м.
Общий поток : 13,4 Мбит/сек
Название фильма : Greener.Grass.2019.LIMITED.1080p.BluRay._rus_BadBajo
Дата кодирования : UTC 2020-02-05 21:34:35
Программа кодирования : mkvmerge v42.0.0 ('Overtime') 64-bit
Библиотека кодирования : libebml v1.3.10 + libmatroska v1.5.2
Обложка : Yes
Attachments : cover.jpg / SMALL_COVER.jpg

Видео
Идентификатор : 1
Формат : AVC
Формат/Информация : Advanced Video Codec
Профиль формата : High@L4.1
Параметр CABAC формата : Да
Параметр RefFrames формата : 5 кадров
Идентификатор кодека : V_MPEG4/ISO/AVC
Продолжительность : 1 ч. 36 м.
Битрейт : 9890 Кбит/сек
Ширина : 1920 пикселей
Высота : 816 пикселей
Соотношение сторон : 2,35:1
Режим частоты кадров : Постоянный
Частота кадров : 23,976 (24000/1001) кадра/сек
Цветовое пространство : YUV
Субдискретизация насыщенности : 4:2:0
Битовая глубина : 8 бит
Тип развёртки : Прогрессивная
Бит/(Пиксели*Кадры) : 0.263
Размер потока : 6,46 Гбайт (72%)
Библиотека кодирования : x264 core 157 r2969 d4099dd
Настройки программы : cabac=1 / ref=5 / deblock=1:-3:-3 / analyse=0x3:0x113 / me=umh / subme=8 / psy=1 / psy_rd=1.00:0.00 / mixed_ref=1 / me_range=16 / chroma_me=1 / trellis=1 / 8x8dct=1 / cqm=0 / deadzone=21,11 / fast_pskip=1 / chroma_qp_offset=-2 / threads=25 / lookahead_threads=4 / sliced_threads=0 / nr=0 / decimate=1 / interlaced=0 / bluray_compat=0 / constrained_intra=0 / bframes=3 / b_pyramid=2 / b_adapt=1 / b_bias=0 / direct=3 / weightb=1 / open_gop=0 / weightp=2 / keyint=250 / keyint_min=23 / scenecut=40 / intra_refresh=0 / rc_lookahead=50 / rc=2pass / mbtree=1 / bitrate=9890 / ratetol=1.0 / qcomp=0.60 / qpmin=0 / qpmax=69 / qpstep=4 / cplxblur=20.0 / qblur=0.5 / ip_ratio=1.40 / aq=1:1.00
Язык : English
Default : Да
Forced : Нет

Аудио #1
Идентификатор : 2
Формат : DTS
Формат/Информация : Digital Theater Systems
Режим : 16
Параметр Endianness формата : Big
Идентификатор кодека : A_DTS
Продолжительность : 1 ч. 36 м.
Вид битрейта : Постоянный
Битрейт : 1510 Кбит/сек
Каналы : 6 каналов
Расположение каналов : Front: L C R, Side: L R, LFE
Частота : 48,0 КГц
Частота кадров : 93,750 кадра/сек (512 spf)
Битовая глубина : 24 бит
Метод сжатия : С потерями
Размер потока : 1,01 Гбайт (11%)
Заголовок : Greener.Grass.2019.DTS_rus_BadBajo
Язык : Russian
Default : Да
Forced : Да

Аудио #2
Идентификатор : 3
Формат : AC-3
Формат/Информация : Audio Coding 3
Расширение режима : CM (complete main)
Параметр Endianness формата : Big
Идентификатор кодека : A_AC3
Продолжительность : 1 ч. 36 м.
Вид битрейта : Постоянный
Битрейт : 448 Кбит/сек
Каналы : 6 каналов
Расположение каналов : Front: L C R, Side: L R, LFE
Частота : 48,0 КГц
Частота кадров : 31,250 кадров/сек (1536 spf)
Метод сжатия : С потерями
Размер потока : 308 Мбайт (3%)
Заголовок : Greener.Grass.2019_AC3_rusBadBajo
Язык : Russian
Default : Нет
Forced : Нет

Аудио #3
Идентификатор : 4
Формат : DTS
Формат/Информация : Digital Theater Systems
Режим : 16
Параметр Endianness формата : Big
Идентификатор кодека : A_DTS
Продолжительность : 1 ч. 36 м.
Вид битрейта : Постоянный
Битрейт : 1509 Кбит/сек
Каналы : 6 каналов
Расположение каналов : Front: L C R, Side: L R, LFE
Частота : 48,0 КГц
Частота кадров : 93,750 кадра/сек (512 spf)
Битовая глубина : 24 бит
Метод сжатия : С потерями
Размер потока : 1,01 Гбайт (11%)
Заголовок : Greener.Grass.2019_DTS_eng
Язык : English
Default : Нет
Forced : Нет

Текст
Идентификатор : 5
Формат : UTF-8
Идентификатор кодека : S_TEXT/UTF8
Идентификатор кодека/Информация : UTF-8 Plain Text
Язык : English
Default : Нет
Forced : Нет

Меню
00:00:00.000 : en:00:00:00.000
00:08:47.360 : en:00:08:47.360
00:15:36.602 : en:00:15:36.602
00:23:58.062 : en:00:23:58.062
00:31:28.553 : en:00:31:28.553
00:36:44.994 : en:00:36:44.994
00:42:26.419 : en:00:42:26.419
00:51:08.148 : en:00:51:08.148
01:00:51.022 : en:01:00:51.022
01:10:07.995 : en:01:10:07.995
01:22:13.345 : en:01:22:13.345
01:33:18.718 : en:01:33:18.718

pb.wtf



Скачать Зеленее травы через торрент https://c.radikal.ru/c18/2002/6f/9d6fa8e4612d.jpg Скачать, смотреть онлайн Зеленее травы бесплантно в хорошем качестве Описание: Две богатые домохозяйки живут беззаботной жизнью в американском пригороде. Одна из них — Джил — сначала дарит ребёнка своей ... 10 10 2
Торрент: Зарегистрирован [2020-02-06 00:18] · скачан: 8 раз
Статус: T временная
Размер: 8.97 GB
Как cкачать? Как скачать Зеленее травы через торрент | UTorrent

% Раздел Тема Автор DL S | L
Фильмы 2019-2020 [DVDrip, WEB-DLRip, HDrip] (DUB, MVO) [ 1.42 GB ] Зеленее травы / Greener Grass [2019 BDRip] MVO Twi7ter Скачать
1 | 0
Фильмы [HD 720p, 1080p] (Хороший звук DUB, MVO) [ 7.68 GB ] Зеленее травы / Greener Grass [2019 BDRip 1080p] MVO bober100 Скачать
1 | 0
Фильмы [HD 720p, 1080p] (Хороший звук DUB, MVO) [ 3.76 GB ] Зеленее травы / Greener Grass [2019 BDRip 720p] MVO bober100 Скачать
1 | 0
Фильмы 2019-2020 [DVDrip, WEB-DLRip, HDrip] (DUB, MVO) [ 1.45 GB ] Зеленее травы / Greener Grass [2019 BDRip] MVO bober100 Скачать
1 | 0
Фильмы с авторской озвучкой [ 1.45 GB ] Зеленее травы / Greener Grass [2019 HDRip Авторский ] jump88 Скачать
1 | 0

28-11-2019 20:33  

Отключить всю рекламу на сайте

    Дорогой пользователь! Огромная просьба, поблагодарите релизера, оцените раздачу и оставьте свои комментарий, если Вы скачали Зеленее травы через торрент бесплатно!
    Комментировать посты могут только пользователи прошедшие не сложную регистрацию
    Показать сообщения:    

    Зеленее травы через торрент
    Скачать бесплатно Зеленее травы
    Зеленее травы скачать торрент
    Зеленее травы смотреть онлайн
    Cкачать фильм Зеленее травы бесплатно
    Зеленее травы скачать торрент в хорошем качестве
    Зеленее травы смотреть онлайн бесплатно в хорошем качестве


    Вы не можете начинать темы
    Вы не можете отвечать на сообщения
    Вы не можете редактировать свои сообщения
    Вы не можете удалять свои сообщения
    Вы не можете голосовать в опросах
    Вы не можете прикреплять файлы к сообщениям
    Вы можете скачивать файлы