>

7.4

iTunes

7.4

2 сезон

9.4

1 сезон

1

7.4

2 сезон

7.2

iTunes

6.0

MVO

13

6.1

iTunes

8.3

Пиратка

30

ULTIMATE

pack

9.9

Лицензия

ВАЖНО

ИГРА 18+

pack

7.3

RePack

MK11

7.7

RePack

jed

7.8

RePack

fifa19

8.5

RePack

RDR2

RePack

NEED FOR SPEED™ PAYBACK

1 сезон

9 сезон

Бесстыжие 9 сезон

Все сериалы

все сериалы на PB.wtf

RePack

FAR CRY 5

Anonymous, доброй ночи, мы катастрофически не успеваем собрать деньги на оплату серверов, помогите нам пожалуйста 5,10,15р., для нас важна любая помощь . В качестве благодарности мы отключим Вам всю рекламу на сайте (укажите свой ник в строку Ваше имя)!

×
  
Magnet ссылка

Зеленее травы / Greener Grass (Жослин ДеБоэр, Доун Люббе) [2019 г., Комедия, HDRip, Авторский (одноголосый)] pb.wtf

Зеленее травы через торрент pb.wtf

Размер: 1.45 GB | Добавлен: 1 год 11 мес. назад | Торрент скачан:7 раз
Смотреть онлайн Зеленее травы | Скачать    Ребята, помогите собрать деньги на оплату серверов!!!

06-02-2020 09:15 Зеленее травы Скачать торрент  

Зеленее травы / Greener Grass
Год выпуска: 2019
Страна: США
Жанр: Комедия
Продолжительность: 01:36:06
Перевод: Авторский (одноголосый)

Режиссер: Жослин ДеБоэр, Доун Люббе

Премьера в мире: 26 января 2019

Кинопоиск: 6.506 352

В ролях: Жослин ДеБоэр, Доун Люббе, Бек Беннетт, Нил Кэйси, Мэри Холлэнд, Д’Арси Карден, Джулиан Хиллиард, Яница Браво, Дот-Мари Джонс, Эшер Майлз Фаллика

Описание: Две богатые домохозяйки живут беззаботной жизнью в американском пригороде. Одна из них — Джил — сначала дарит ребёнка своей подруге, а потом её сын превращается в собаку. Что дальше? А дальше ещё 99,7% абсурда

Качество: HDRip
Формат: AVI
Видео кодек: XviD
Аудио кодек: AC3
Видео: XviD, 1709 Кбит/с, 720х304
Аудио#1: AC3, 6 ch, 448 Кбит/с





Общее
Полное имя : D:\torrent\novay zagruzka(dok)\Greener.Grass.2019.AVO.HDRip.avi
Формат : AVI
Формат/Информация : Audio Video Interleave
Размер файла : 1,45 Гбайт
Продолжительность : 1 ч. 36 м.
Общий поток : 2166 Кбит/сек
Программа кодирования : VirtualDubMod 1.5.10.3 | www.virtualdub-fr.org || (build 2550/release)
Библиотека кодирования : VirtualDubMod build 2550/release
Авторское право : ExKinoRay

Видео
Идентификатор : 0
Формат : MPEG-4 Visual
Профиль формата : Advanced Simple@L5
Настройки формата : BVOP1 / Custom Matrix
Параметр BVOP формата : 1
Параметр QPel формата : Нет
Параметр GMC формата : Без точки перехода
Параметр матрицы формата : Выборочная
Идентификатор кодека : XVID
Идентификатор кодека/Подсказка : XviD
Продолжительность : 1 ч. 36 м.
Битрейт : 1709 Кбит/сек
Ширина : 720 пикселей
Высота : 304 пикселя
Соотношение сторон : 2,35:1
Частота кадров : 23,976 (24000/1001) кадра/сек
Частота кадров в оригинале : 23,976 (23976/1000) кадра/сек
Цветовое пространство : YUV
Субдискретизация насыщенности : 4:2:0
Битовая глубина : 8 бит
Тип развёртки : Прогрессивная
Метод сжатия : С потерями
Бит/(Пиксели*Кадры) : 0.326
Размер потока : 1,15 Гбайт (79%)
Библиотека кодирования : XviD 73

Аудио
Идентификатор : 1
Формат : AC-3
Формат/Информация : Audio Coding 3
Коммерческое название : Dolby Digital
Идентификатор кодека : 2000
Продолжительность : 1 ч. 36 м.
Вид битрейта : Постоянный
Битрейт : 448 Кбит/сек
Каналы : 6 каналов
Channel layout : L R C LFE Ls Rs
Частота : 48,0 КГц
Частота кадров : 31,250 кадров/сек (1536 SPF)
Битовая глубина : 16 бит
Метод сжатия : С потерями
Размер потока : 308 Мбайт (21%)
Выравнивание : Разделение по промежуткам
Продолжительность промежутка : 42 мс. (1,00 видеокадр)
Время предзагрузки промежутка : 500 мс.
Заголовок : AVO BadBajo
ServiceKind/String : Complete Main

pb.wtf



Скачать Зеленее травы через торрент https://pic1.kartinco.top/images/12/hnmg1.jpg Скачать, смотреть онлайн Зеленее травы бесплантно в хорошем качестве Описание: Две богатые домохозяйки живут беззаботной жизнью в американском пригороде. Одна из них — Джил — сначала дарит ребёнка своей ... 10 10 1
Торрент: Зарегистрирован [2020-02-06 09:15] · скачан: 7 раз
Статус: √ проверено
Размер: 1.45 GB
Как cкачать? Как скачать Зеленее травы через торрент | UTorrent

% Раздел Тема Автор DL S | L
Фильмы 2019-2020 [DVDrip, WEB-DLRip, HDrip] (DUB, MVO) [ 1.42 GB ] Зеленее травы / Greener Grass [2019 BDRip] MVO Twi7ter Скачать
1 | 0
Фильмы [HD 720p, 1080p] (Хороший звук DUB, MVO) [ 7.68 GB ] Зеленее травы / Greener Grass [2019 BDRip 1080p] MVO bober100 Скачать
1 | 0
Фильмы [HD 720p, 1080p] (Хороший звук DUB, MVO) [ 3.76 GB ] Зеленее травы / Greener Grass [2019 BDRip 720p] MVO bober100 Скачать
1 | 0
Фильмы 2019-2020 [DVDrip, WEB-DLRip, HDrip] (DUB, MVO) [ 1.45 GB ] Зеленее травы / Greener Grass [2019 BDRip] MVO bober100 Скачать
1 | 0
T Фильмы с авторской озвучкой [ 8.97 GB ] Зеленее травы / Greener Grass [2019 BDRip 1080p] AVO [А.Важенин [BadBajo] bober100 Скачать
1 | 0

28-11-2019 20:33  

Отключить всю рекламу на сайте

    Дорогой пользователь! Огромная просьба, поблагодарите релизера, оцените раздачу и оставьте свои комментарий, если Вы скачали Зеленее травы через торрент бесплатно!
    Комментировать посты могут только пользователи прошедшие не сложную регистрацию
    Показать сообщения:    

    Зеленее травы через торрент
    Скачать бесплатно Зеленее травы
    Зеленее травы скачать торрент
    Зеленее травы смотреть онлайн
    Cкачать фильм Зеленее травы бесплатно
    Зеленее травы скачать торрент в хорошем качестве
    Зеленее травы смотреть онлайн бесплатно в хорошем качестве


    Вы не можете начинать темы
    Вы не можете отвечать на сообщения
    Вы не можете редактировать свои сообщения
    Вы не можете удалять свои сообщения
    Вы не можете голосовать в опросах
    Вы не можете прикреплять файлы к сообщениям
    Вы можете скачивать файлы