Ссылка на приватное зеркало нашего сайта всего за 1$. Внимание количество ограничено!!!

2 сезон

iTunes

1 сезон

1

2 сезон

2 сезон

iTunes

1 сезон

RePack

30

Новинка

ВАЖНО

ИГРА 18+

pack

RePack

MK11
pack

Забери бонус

RePack

jed

!!Акция!!

Alien_Rage

RePack

fifa19

RePack

Assassins Creed: Odyssey

RePack

NEED FOR SPEED™ PAYBACK

4 сезон

9 сезон

Бесстыжие 9 сезон

Все сериалы

все сериалы на PB.wtf

RePack

FAR CRY 5
  

В надежде на спасение / Saving Hope / Сезон: 4 / Серии: 1-18 из из 18 (Дэвид Веллингтон, Питер Веллингтон) [2015-2016, Драма, WEBRip 720p] [MVO] (HDRezka Studio) pb.wtf

В надежде на спасение через торрент pb.wtf

Размер: 20.85 GB | Добавлен: 9 мес. назад | Торрент скачан:2 раза
Скачать  

06-02-2020 09:27 В надежде на спасение Скачать торрент  

В надежде на спасение / Saving Hope
Год выпуска: 2015-2016
Страна: Канада
Жанр: Драма
Продолжительность: 00:43:00
Перевод: Профессиональный (многоголосый закадровый) *HDRezka Studio*
Субтитры: русские (forced)

Режиссёр: Дэвид Веллингтон, Питер Веллингтон

В ролях: Эрика Дюранс, Джулия Чан, Кристофер Тернер, К.К. Коллинз, Дэниэл Гиллис, Майкл Шэнкс, Husein Madhavji, Glenda Braganza, Джозеф Пьер, Сальваторе Антонио.

Описание: В результате автомобильной аварии харизматичный руководитель хирургического отделения одной из больниц Торонто Чарли Харрис впадает в кому. Его невеста и коллега, Алекс Рид в компании выдающегося хирурга Джоэля Горана сражаются за его жизнь. А в это время по коридорам больницы бродит дух доктора Харриса, пытаясь понять, кто он — привидение или плод собственного воображения. Рид и её коллеги борются за жизнь Чарли и других пациентов, каждый день сталкиваясь с необходимостью принимать нелёгкие и смелые решения, чтобы у них всегда оставалась надежда на спасение.

rating

Качество: WEBRip 720p
Формат: MKV
Видео кодек: H.264
Аудио кодек: AC3
Видео: AVC, 1280x720 (16/9), 23.976 fps, 3 800 Kbps
Аудио: AC-3, 48.0 KHz, 2 ch, 192 Kbps
General
Unique ID : 331396770132037419463036438805751837471 (0xF950B2412DC99E6218FC242A1B9CB31F)
Complete name : F:\Saving.Hope.2015.S04.720p\Saving.Hope.S04E01.WEBRip.720p.rus.2.0.HDREZKA.STUDIO.mkv
Format : Matroska
Format version : Version 4 / Version 2
File size : 1.24 GiB
Duration : 43mn 24s
Overall bit rate mode : Variable
Overall bit rate : 4 092 Kbps
Writing application : Lavf58.26.101
Writing library : Lavf58.26.101

Video
ID : 1
Format : AVC
Format/Info : Advanced Video Codec
Format profile : High@L4.1
Format settings, CABAC : Yes
Format settings, ReFrames : 1 frame
Codec ID : V_MPEG4/ISO/AVC
Duration : 43mn 24s
Bit rate mode : Variable
Bit rate : 3 818 Kbps
Maximum bit rate : 2 000 Kbps
Width : 1 280 pixels
Height : 720 pixels
Display aspect ratio : 16:9
Frame rate mode : Constant
Frame rate : 23.976 fps
Color space : YUV
Chroma subsampling : 4:2:0
Bit depth : 8 bits
Scan type : Progressive
Bits/(Pixel*Frame) : 0.173
Stream size : 1.16 GiB (93%)
Default : Yes
Forced : No
HANDLER_NAME : VideoHandler
DURATION : 00:43:24.524000000

Audio
ID : 2
Format : AC-3
Format/Info : Audio Coding 3
Mode extension : CM (complete main)
Format settings, Endianness : Big
Codec ID : A_AC3
Duration : 43mn 24s
Bit rate mode : Constant
Bit rate : 192 Kbps
Channel(s) : 2 channels
Channel positions : Front: L R
Sampling rate : 48.0 KHz
Bit depth : 32 bits
Compression mode : Lossy
Delay relative to video : -5ms
Stream size : 59.6 MiB (5%)
Language : Russian
Default : Yes
Forced : No
HANDLER_NAME : SoundHandler
DURATION : 00:43:24.480000000
скриншот  скриншот  скриншот  
pb.wtf



Скачать В надежде на спасение через торрент https://i111.fastpic.ru/big/2020/0206/49/d68ea1a9abbd48adfff3dfaf0b8f8e49.png Скачать фильм В надежде на спасение через торрент бесплантно в хорошем качестве Описание: В результате автомобильной аварии харизматичный руководитель хирургического отделения одной из больниц Торонто Чарли Харрис ... 10 10 1
Торрент: Зарегистрирован [2020-02-06 09:27] · скачан: 2 раз
Статус: √ проверено
Размер: 20.85 GB
Как cкачать? Как скачать В надежде на спасение через торрент | qTorrent

28-11-2019 20:33  

Отключить всю рекламу на сайте

    Дорогой пользователь! Огромная просьба, поблагодарите релизера, оцените раздачу и оставьте свои комментарий, если Вы скачали В надежде на спасение через торрент бесплатно! Внесите свою лепту в развитие PiratBit!
    Комментировать посты могут только пользователи прошедшие не сложную регистрацию
    Показать сообщения:    

    В надежде на спасение через торрент
    Скачать бесплатно В надежде на спасение
    В надежде на спасение скачать торрент
    В надежде на спасение смотреть онлайн
    Cкачать фильм В надежде на спасение бесплатно
    В надежде на спасение скачать торрент в хорошем качестве
    В надежде на спасение смотреть онлайн бесплатно в хорошем качестве


    Вы не можете начинать темы
    Вы не можете отвечать на сообщения
    Вы не можете редактировать свои сообщения
    Вы не можете удалять свои сообщения
    Вы не можете голосовать в опросах
    Вы не можете прикреплять файлы к сообщениям
    Вы можете скачивать файлы