Ссылка на приватное зеркало нашего сайта всего за 1$. Внимание количество ограничено!!!

2 сезон

iTunes

1 сезон

1

iTunes

iTunes

iTunes

1 сезон

RePack

30

ИГРА 18+

pack

ВАЖНО

!!Акция!!

Alien_RageХит недели

RePack

MK11
pack

Забери бонус

RePack

jed

!!Акция!!

Alien_Rage

RePack

fifa19

RePack

Assassins Creed: Odyssey

RePack

NEED FOR SPEED™ PAYBACK

4 сезон

9 сезон

Бесстыжие 9 сезон

Все сериалы

все сериалы на PB.wtf

RePack

FAR CRY 5
  

Предатель / Сезон: 1 / Серии: 1-12 из 12 (Станислав Титаренко) [2012, драма, криминал, HDTVRip-AVC] pb.wtf

Предатель через торрент pb.wtf

Размер: 7.69 GB | Добавлен: 8 мес. назад | Торрент скачан:78 раз
Скачать  

07-02-2020 12:43 Предатель Скачать торрент  

Предатель
Год выпуска: 2012
Страна: Россия
Студия: "Форвард-Фильм", "Прогресс-Студия"
Жанр: драма, криминал
Продолжительность: ~ 00:45:00
Перевод: Не требуется
Субтитры: отсутствуют

Режиссер: Станислав Титаренко



В ролях: Роман Полянский, Артур Литвинов, Сергей Колос, Андрей Зибров, Дмитрий Сутырин, Яков Шамшин, Елена Радевич, Валерий Полетаев, Антонис Шаманиди, Станислав Никольский, Анатолий Журавин, Денис Синявский, Анна Арефьева, Максим Головчанов, Владимир Артёмов, Максим Студеновский, Юлия Молчанова, Олег Куликович, Михаил Касапов, Александр Клемантович, Валентин Захаров (II), Валентин Кузнецов (II), Андрей Гульнев, Любовь Завадская, Михаил Самочко, Татьяна Верховская, Андрей Родимов, Кира Кауфман

Описание: Когда-то опер из управления по борьбе с наркотиками Игорь Ребров пришел на работу с благими намерениями, но окружающий быт и условия сильно на него повлияли. Когда вокруг все зарабатывают деньги, трудно остаться белой вороной. И Игорь становится «как все»: крышует наркоторговцев, решает вопросы для коммерсантов, организует передачу взяток... Однажды Игоря просят посодействовать в освобождении преступного авторитета. Для решения вопроса хотят использовать его включение в следственную бригаду. Главным следователем по делу оказывается очень принципиальная молодая девушка Ольга Баренцева. С ней нельзя договориться. Она ничего не боится. В какой-то момент Игорь понимает, что эта девушка для него много значит – и далеко не только по работе. Судьба поставит его перед выбором. Какой выбор сделает Игорь?

Качество: HDTVRip-AVC
Формат: MKV

Видео: MPEG-4 (AVC), 1024x576, 25 fps, ~ 1800 kbps, ~ 0.12 bit/pixel
Аудио: AC3, 48.0 kHz, 2 ch, 192 Kbps
скриншот  скриншот  скриншот  скриншот  скриншот  

General
Unique ID : 250309324507399075280245909913408925121 (0xBC4FD2850F04F30891C0176320BC6DC1)
Complete name : Предатель (01 сер.).mkv
Format : Matroska
Format version : Version 2
File size : 698 MiB
Duration : 48 min 56 s
Overall bit rate : 1 994 kb/s
Encoded date : UTC 2019-12-13 05:54:28
Writing application : mkvmerge v7.8.0 ('River Man') 32bit built on Apr 3 2015 12:11:22
Writing library : libebml v1.3.1 + libmatroska v1.4.2

Video
ID : 1
Format : AVC
Format/Info : Advanced Video Codec
Format profile : High@L3.1
Format settings : CABAC / 6 Ref Frames
Format settings, CABAC : Yes
Format settings, Reference : 6 frames
Codec ID : V_MPEG4/ISO/AVC
Duration : 48 min 56 s
Bit rate : 1 800 kb/s
Width : 1 024 pixels
Height : 576 pixels
Display aspect ratio : 16:9
Frame rate mode : Constant
Frame rate : 25.000 FPS
Color space : YUV
Chroma subsampling : 4:2:0
Bit depth : 8 bits
Scan type : Progressive
Bits/(Pixel*Frame) : 0.122
Stream size : 617 MiB (88%)
Writing library : x264 core 157 r2935 545de2f
Encoding settings : cabac=1 / ref=6 / deblock=1:0:0 / analyse=0x3:0x113 / me=umh / subme=8 / psy=1 / psy_rd=1.00:0.00 / mixed_ref=1 / me_range=24 / chroma_me=1 / trellis=1 / 8x8dct=1 / cqm=0 / deadzone=21,11 / fast_pskip=1 / chroma_qp_offset=-2 / threads=4 / lookahead_threads=1 / sliced_threads=0 / nr=0 / decimate=1 / interlaced=0 / bluray_compat=0 / stitchable=1 / constrained_intra=0 / bframes=6 / b_pyramid=2 / b_adapt=1 / b_bias=0 / direct=3 / weightb=1 / open_gop=0 / weightp=2 / keyint=250 / keyint_min=25 / scenecut=40 / intra_refresh=0 / rc_lookahead=40 / rc=2pass / mbtree=1 / bitrate=1800 / ratetol=1.0 / qcomp=0.60 / qpmin=0 / qpmax=69 / qpstep=4 / cplxblur=20.0 / qblur=0.5 / ip_ratio=1.40 / aq=1:1.00
Default : Yes
Forced : No

Audio
ID : 2
Format : AC-3
Format/Info : Audio Coding 3
Commercial name : Dolby Digital
Codec ID : A_AC3
Duration : 48 min 56 s
Bit rate mode : Constant
Bit rate : 192 kb/s
Channel(s) : 2 channels
Channel layout : L R
Sampling rate : 48.0 kHz
Frame rate : 31.250 FPS (1536 SPF)
Bit depth : 16 bits
Compression mode : Lossy
Stream size : 67.2 MiB (10%)
Service kind : Complete Main
Default : Yes
Forced : No

pb.wtf



Скачать Предатель через торрент http://s004.radikal.ru/i207/1211/fd/49a5c65af1aa.jpg Скачать фильм Предатель через торрент бесплантно в хорошем качестве Описание: Когда-то опер из управления по борьбе с наркотиками Игорь Ребров пришел на работу с благими намерениями, но окружающий быт и ... 10 10 4
Торрент: Зарегистрирован [2020-02-07 12:43] · скачан: 78 раз
Статус: √ проверено
Размер: 7.69 GB
Как cкачать? Как скачать Предатель через торрент | qTorrent

% Раздел Тема Автор DL S | L
Наши сериалы [ 16.4 GB ] Предатель / Сезон: 1 / Серии: 1-12 из 12 [2012 HDTV 1080p] bober100 Скачать
1 | 0

28-11-2019 20:33  

Отключить всю рекламу на сайте

    Дорогой пользователь! Огромная просьба, поблагодарите релизера, оцените раздачу и оставьте свои комментарий, если Вы скачали Предатель через торрент бесплатно! Внесите свою лепту в развитие PiratBit!
    Комментировать посты могут только пользователи прошедшие не сложную регистрацию
    Показать сообщения:    

    Предатель через торрент
    Скачать бесплатно Предатель
    Предатель скачать торрент
    Предатель смотреть онлайн
    Cкачать фильм Предатель бесплатно
    Предатель скачать торрент в хорошем качестве
    Предатель смотреть онлайн бесплатно в хорошем качестве


    Вы не можете начинать темы
    Вы не можете отвечать на сообщения
    Вы не можете редактировать свои сообщения
    Вы не можете удалять свои сообщения
    Вы не можете голосовать в опросах
    Вы не можете прикреплять файлы к сообщениям
    Вы можете скачивать файлы