Ссылка на приватное зеркало нашего сайта всего за 1$. Внимание количество ограничено!!!

2 сезон

iTunes

1 сезон

1

2 сезон

2 сезон

iTunes

1 сезон

RePack

30

Ultimate

ВАЖНО

ИГРА 18+

pack

RePack

MK11
pack

Забери бонус

RePack

jed

!!Акция!!

Alien_Rage

RePack

fifa19

RePack

Assassins Creed: Odyssey

RePack

NEED FOR SPEED™ PAYBACK

4 сезон

9 сезон

Бесстыжие 9 сезон

Все сериалы

все сериалы на PB.wtf

RePack

FAR CRY 5
  

Маленькая мисс Дулиттл / Liliane Susewind - Ein tierisches Abenteuer (Йоахим Масаннек) [2018, фэнтези, комедия, семейный, BD Remux 1080p] DUB [iTunes] pb.wtf

Маленькая мисс Дулиттл через торрент pb.wtf

Размер: 20.05 GB | Добавлен: 9 мес. назад | Торрент скачан:5 раз
Скачать  

07-02-2020 16:47 Маленькая мисс Дулиттл Скачать торрент  

Маленькая мисс Дулиттл | Liliane Susewind - Ein tierisches Abenteuer Год выпуска: 2018
Страна: Германия
Студия: Dreamtool Entertainment, Velvet Films
Жанр: фэнтези, комедия, семейный
Продолжительность: 01:40:56
Перевод: Дублированный | iTunes
Субтитры: Русские (Forced [на непереведенные места]), английские

Режиссер: Йоахим Масаннек

rating

В ролях: Пери Баумейстер, Айлин Тецель, Кристоф Мария Хербст, Мерет Беккер, Том Бек, Малу Ляйхер, Аарон Кисёв, Фелис Аренс, Бюргер Ларс Дитрих

Описание: Рыжеволосая Лилиан не просто обожает животных, но и умеет понимать их язык и отвечать им. О ее невероятной способности знают только члены семьи, и они всячески оберегают тайну. Но любым тайнам в свое время всегда приходит конец, особенно если на кону стоит спасение зоопарка.

Качество: BD Remux 1080p
Формат: MKV

Видео: MPEG-4 AVC, 1920x1080, 24.1 Mbit/s, 23.976 fps
Аудио #01: 48 kHz, AC3, 5.1, 384 Kbps | iTunes | RUS |
Аудио #02: 48 kHz, DTS-HD MA, 5.1, 3915 Kbps | Оригинал | ENG |
скриншот  скриншот  скриншот  скриншот  скриншот  

General
Unique ID : 149018699749489051632200402063488637207 (0x701BF526115E10C169A6E04A183ED917)
Complete name : E:Video111Little.Miss.Doolittle.2018.BDREMUX.1080.seleZen.mkv
Format : Matroska
Format version : Version 4
File size : 20.1 GiB
Duration : 1 h 40 min
Overall bit rate mode : Variable
Overall bit rate : 28.4 Mb/s
Encoded date : UTC 2020-02-06 21:56:34
Writing application : mkvmerge v40.0.0 ('Old Town Road + Pony') 64-bit
Writing library : libebml v1.3.9 + libmatroska v1.5.2

Video
ID : 1
Format : AVC
Format/Info : Advanced Video Codec
Format profile : High@L4.1
Format settings : CABAC / 4 Ref Frames
Format settings, CABAC : Yes
Format settings, Reference : 4 frames
Codec ID : V_MPEG4/ISO/AVC
Duration : 1 h 40 min
Bit rate mode : Variable
Bit rate : 24.1 Mb/s
Maximum bit rate : 35.0 Mb/s
Width : 1 920 pixels
Height : 1 080 pixels
Display aspect ratio : 16:9
Frame rate mode : Constant
Frame rate : 23.976 (24000/1001) FPS
Standard : NTSC
Color space : YUV
Chroma subsampling : 4:2:0
Bit depth : 8 bits
Scan type : Progressive
Bits/(Pixel*Frame) : 0.486
Stream size : 17.0 GiB (85%)
Language : English
Default : Yes
Forced : No
Color range : Limited
Color primaries : BT.709
Transfer characteristics : BT.709
Matrix coefficients : BT.709

Audio #1
ID : 2
Format : AC-3
Format/Info : Audio Coding 3
Commercial name : Dolby Digital
Codec ID : A_AC3
Duration : 1 h 40 min
Bit rate mode : Constant
Bit rate : 384 kb/s
Channel(s) : 6 channels
Channel layout : L R C LFE Ls Rs
Sampling rate : 48.0 kHz
Frame rate : 31.250 FPS (1536 SPF)
Compression mode : Lossy
Stream size : 277 MiB (1%)
Title : iTunes
Language : Russian
Service kind : Complete Main
Default : Yes
Forced : Yes

Audio #2
ID : 3
Format : DTS XLL
Format/Info : Digital Theater Systems
Commercial name : DTS-HD Master Audio
Codec ID : A_DTS
Duration : 1 h 40 min
Bit rate mode : Variable
Bit rate : 3 915 kb/s
Channel(s) : 6 channels
Channel layout : C L R Ls Rs LFE
Sampling rate : 48.0 kHz
Frame rate : 93.750 FPS (512 SPF)
Bit depth : 24 bits
Compression mode : Lossless
Stream size : 2.76 GiB (14%)
Title : Original
Language : English
Default : No
Forced : No

Text #1
ID : 4
Format : UTF-8
Codec ID : S_TEXT/UTF8
Codec ID/Info : UTF-8 Plain Text
Duration : 1 min 22 s
Bit rate : 112 b/s
Count of elements : 20
Stream size : 1.14 KiB (0%)
Title : Forced [на непереведенные места]
Language : Russian
Default : Yes
Forced : Yes

Text #2
ID : 5
Format : UTF-8
Codec ID : S_TEXT/UTF8
Codec ID/Info : UTF-8 Plain Text
Duration : 1 h 36 min
Bit rate : 61 b/s
Count of elements : 1386
Stream size : 43.8 KiB (0%)
Title : SDH
Language : English
Default : No
Forced : No

Menu
00:00:00.000 : en:Глава 01
00:07:11.514 : en:Глава 02
00:15:21.504 : en:Глава 03
00:23:46.425 : en:Глава 04
00:33:07.527 : en:Глава 05
00:42:49.692 : en:Глава 06
00:51:15.239 : en:Глава 07
01:00:49.271 : en:Глава 08
01:08:14.090 : en:Глава 09
01:16:45.559 : en:Глава 10
01:24:02.788 : en:Глава 11
01:31:32.445 : en:Глава 12

pb.wtf



Скачать Маленькая мисс Дулиттл через торрент https://img15.lostpic.net/2020/02/07/bde104787c9a16ccf5dfbb7d114e604e.jpg Скачать фильм Маленькая мисс Дулиттл через торрент бесплантно в хорошем качестве Описание: Рыжеволосая Лилиан не просто обожает животных, но и умеет понимать их язык и отвечать им. О ее невероятной способности знают ... 8.8 10 4
Торрент: Зарегистрирован [2020-02-07 16:47] · скачан: 5 раз
Статус: √ проверено
Размер: 20.05 GB
Как cкачать? Как скачать Маленькая мисс Дулиттл через торрент | qTorrent

% Раздел Тема Автор DL S | L
Фильмы 2018 [DVDrip, WEB-DLRip, HDrip] (DUB, MVO) [ 748 MB ] Маленькая мисс Дулиттл / Liliane Susewind - Ein tierisches Abenteuer [2018 HDRip] bober100 Скачать
1 | 0
Фильмы [HD 720p, 1080p] (Хороший звук DUB, MVO) [ 7.75 GB ] Маленькая мисс Дулиттл / Liliane Susewind - Ein tierisches Abenteuer [2018 BDRip 1080p] bober100 Скачать
2 | 0
Фильмы (WEB-DL 720p, 1080p) [ 3.44 GB ] Маленькая мисс Дулиттл / Liliane Susewind - Ein tierisches Abenteuer [2018 WEB-DL 1080p] bober100 Скачать
1 | 0
Фильмы [HD 720p, 1080p] (Хороший звук DUB, MVO) [ 4.02 GB ] Маленькая мисс Дулиттл / Liliane Susewind - Ein tierisches Abenteuer [2018 BDRip 720p] bober100 Скачать
1 | 0
Фильмы 2018 [DVDrip, WEB-DLRip, HDrip] (DUB, MVO) [ 1.46 GB ] Маленькая мисс Дулиттл / Liliane Susewind - Ein tierisches Abenteuer [2018 BDRip] bober100 Скачать
3 | 0

28-11-2019 20:33  

Отключить всю рекламу на сайте

    Дорогой пользователь! Огромная просьба, поблагодарите релизера, оцените раздачу и оставьте свои комментарий, если Вы скачали Маленькая мисс Дулиттл через торрент бесплатно! Внесите свою лепту в развитие PiratBit!
    Комментировать посты могут только пользователи прошедшие не сложную регистрацию
    Показать сообщения:    

    Маленькая мисс Дулиттл через торрент
    Скачать бесплатно Маленькая мисс Дулиттл
    Маленькая мисс Дулиттл скачать торрент
    Маленькая мисс Дулиттл смотреть онлайн
    Cкачать фильм Маленькая мисс Дулиттл бесплатно
    Маленькая мисс Дулиттл скачать торрент в хорошем качестве
    Маленькая мисс Дулиттл смотреть онлайн бесплатно в хорошем качестве


    Вы не можете начинать темы
    Вы не можете отвечать на сообщения
    Вы не можете редактировать свои сообщения
    Вы не можете удалять свои сообщения
    Вы не можете голосовать в опросах
    Вы не можете прикреплять файлы к сообщениям
    Вы можете скачивать файлы