Всегда рабочее зеркало без VPN и Proxy просто перед .vidak.icu напиши любое слово или цифру, Пример http://lwfw.vidak.icu

MVO

2 сезон

1 сезон

1

1 сезон

iTunes

2 сезон

13

1 сезон

Deluxe

pack

Рекомендуем

Пиратка

30

ВАЖНО

RePack

MK11

RePack

jed

RePack

fifa19

RePack

RDR2

RePack

NEED FOR SPEED™ PAYBACK

Кинопоиск HD

6 сезон

 Острые козырьки 6 сезон

Все сериалы

все сериалы на PB.wtf

RePack

FAR CRY 5

Anonymous, нам критически не хватает 5601 руб. на оплату серверов и переферии за Апрель, помоги нам пожалуйста, вся надежда только на тебя. В благодарность мы отключим тебе всю рекламу на сайте!

×
  
Magnet ссылка

Короли интриги / El Cuento de las Comadrejas (Хуан Хосе Кампанелья) [2019, Комедия, детектив, WEB-DL 1080p] MVO [iTunes] pb.wtf

Короли интриги через торрент pb.wtf

Раздают: 1 [ 0 KB/s ]
Размер: 4.58 GB | Добавлен: 2 года 3 мес. назад | Торрент скачан:149 раз
Смотреть онлайн Короли интриги | Скачать    Ребята, помогите собрать деньги на оплату серверов!!!

07-02-2020 16:58 Короли интриги Скачать торрент  

Короли интриги | El Cuento de las Comadrejas
Год выпуска: 2019
Страна: Аргентина, Испания
Студия: 100 Bares, Instituto Nacional de Cine y Artes Audiovisuales (INCAA), Instituto de la Cinematografía y de las Artes Audiovisuales
Жанр: Комедия, детектив
Продолжительность: 02:08:51
Перевод: Профессиональный многоголосый | iTunes
Субтитры: отсутствуют

Режиссер: Хуан Хосе Кампанелья

rating

В ролях: Грасиэла Борхес, Оскар Мартинес, Луис Брандони, Маркос Мандсток, Клара Лаго, Николас Франсельа, Лус Киприота, Мару Запата, Anwar Yoma, Мануэль Мартинес Собрадо

Описание: Мара Ортис, забытая всеми кинозвезда «золотой эпохи» ведет затворнический образ жизни в старинном особняке в пригороде Буэнос-Айреса. Свой кров актриса делит с экстравагантной компанией бывших свидетелей ее увядшей славы - влюбленным в нее супругом-актером эпизода, язвительным сценаристом и режиссером-циником. Отношения этой четверки далеки от совершенства: они балансируют между обожанием и неприязнью. Однажды в поместье появляются нежданные гости - молодая пара, положившая глаз на звездное поместье. Они притворяются поклонниками Мары и убеждают актрису продать дом. Однако на пути «акул бизнеса» встают мастера дьявольских интриг. Смертельный поединок начинается...

Качество: WEB-DL 1080p
Формат: MKV

Видео: AVC, 5119 Kb/s, 1920x802
Аудио: Russian: AC3, 6 ch, 384 Kb/s
скриншот  скриншот  скриншот  скриншот  

General
Unique ID : 221677400664150021415730777452017212856 (0xA6C583AF47868F02B9422E2C3995DDB8)
Complete name : Koroli.intrig.2019.WEB-DL.1080p.ELEKTRI4KA.UNIONGANG.mkv
Format : Matroska
Format version : Version 4 / Version 2
File size : 4.58 GiB
Duration : 2 h 3 min
Overall bit rate : 5 305 kb/s
Encoded date : UTC 2020-02-04 01:03:18
Writing application : mkvmerge v8.3.0 ('Over the Horizon') 64bit
Writing library : libebml v1.3.1 + libmatroska v1.4.2

Video
ID : 1
Format : AVC
Format/Info : Advanced Video Codec
Format profile : High@L4
Format settings, CABAC : Yes
Format settings, ReFrames : 4 frames
Codec ID : V_MPEG4/ISO/AVC
Duration : 2 h 3 min
Bit rate : 5 120 kb/s
Width : 1 920 pixels
Height : 802 pixels
Display aspect ratio : 2.40:1
Frame rate mode : Constant
Frame rate : 25.000 FPS
Color space : YUV
Chroma subsampling : 4:2:0
Bit depth : 8 bits
Scan type : Progressive
Bits/(Pixel*Frame) : 0.133
Stream size : 4.42 GiB (96%)
Writing library : x264 core 148
Encoding settings : cabac=1 / ref=3 / deblock=1:0:0 / analyse=0x3:0x113 / me=hex / subme=7 / psy=1 / psy_rd=1.00:0.00 / mixed_ref=1 / me_range=16 / chroma_me=1 / trellis=1 / 8x8dct=1 / cqm=0 / deadzone=21,11 / fast_pskip=1 / chroma_qp_offset=-2 / threads=25 / lookahead_threads=4 / sliced_threads=0 / nr=0 / decimate=1 / interlaced=0 / bluray_compat=0 / constrained_intra=0 / bframes=6 / b_pyramid=2 / b_adapt=1 / b_bias=0 / direct=1 / weightb=1 / open_gop=0 / weightp=2 / keyint=50 / keyint_min=26 / scenecut=0 / intra_refresh=0 / rc_lookahead=40 / rc=2pass / mbtree=1 / bitrate=5120 / ratetol=1.0 / qcomp=0.60 / qpmin=0 / qpmax=69 / qpstep=4 / cplxblur=20.0 / qblur=0.5 / vbv_maxrate=7680 / vbv_bufsize=20480 / nal_hrd=none / filler=0 / ip_ratio=1.40 / aq=1:1.00
Language : English
Default : Yes
Forced : No

Audio
ID : 2
Format : AC-3
Format/Info : Audio Coding 3
Mode extension : CM (complete main)
Format settings, Endianness : Big
Codec ID : A_AC3
Duration : 2 h 3 min
Bit rate mode : Constant
Bit rate : 192 kb/s
Channel(s) : 6 channels
Channel positions : Front: L C R, Side: L R, LFE
Sampling rate : 48.0 kHz
Frame rate : 31.250 FPS (1536 spf)
Bit depth : 16 bits
Compression mode : Lossy
Stream size : 170 MiB (4%)
Title : iTunes (ELEKTRI4KA.UNIONGANG)
Language : Russian
Default : Yes
Forced : No

pb.wtf



Скачать Короли интриги через торрент https://c.radikal.ru/c05/1911/c0/a3fb079304dd.png Скачать, смотреть онлайн Короли интриги бесплантно в хорошем качестве Описание: Мара Ортис, забытая всеми кинозвезда «золотой эпохи» ведет затворнический образ жизни в старинном особняке в пригороде ... 9.4 10 5
Торрент: Зарегистрирован [2020-02-07 16:58] · скачан: 149 раз
Статус: √ проверено
Размер: 4.58 GB
Как cкачать? Как скачать Короли интриги через торрент | UTorrent

% Раздел Тема Автор DL S | L
Фильмы 2019-2020 [DVDrip, WEB-DLRip, HDrip] (DUB, MVO) [ 2.13 GB ] Короли интриги / El Cuento de las Comadrejas [2019 BDRip] MVO bober100 Скачать
5 | 0
Фильмы 2019-2020 [DVDrip, WEB-DLRip, HDrip] (DUB, MVO) [ 745 MB ] Короли интриги / El Cuento de las Comadrejas [2019 WEB-DLRip-AVC] MVO - OlLanDGroup Skandar2019 Скачать
1 | 0
Фильмы (WEB-DL 720p, 1080p) [ 3.84 GB ] Короли интриги / El Cuento de las Comadrejas [2019 WEB-DLRip 720p ] PsYcho Скачать
1 | 0
Фильмы 2019-2020 [DVDrip, WEB-DLRip, HDrip] (DUB, MVO) [ 1.46 GB ] Короли интриги / El Cuento de las Comadrejas [2019 BDRip] MVO bober100 Скачать
1 | 0

28-11-2019 20:33  

Отключить всю рекламу на сайте

    Дорогой пользователь! Огромная просьба, поблагодарите релизера, оцените раздачу и оставьте свои комментарий, если Вы скачали Короли интриги через торрент бесплатно!
    Комментировать посты могут только пользователи прошедшие не сложную регистрацию
    Показать сообщения:    

    Короли интриги через торрент
    Скачать бесплатно Короли интриги
    Короли интриги скачать торрент
    Короли интриги смотреть онлайн
    Cкачать фильм Короли интриги бесплатно
    Короли интриги скачать торрент в хорошем качестве
    Короли интриги смотреть онлайн бесплатно в хорошем качестве


    Вы не можете начинать темы
    Вы не можете отвечать на сообщения
    Вы не можете редактировать свои сообщения
    Вы не можете удалять свои сообщения
    Вы не можете голосовать в опросах
    Вы не можете прикреплять файлы к сообщениям
    Вы можете скачивать файлы