Ссылка на приватное зеркало нашего сайта всего за 1$. Внимание количество ограничено!!!

2 сезон

iTunes

1 сезон

1

iTunes

iTunes

iTunes

1 сезон

RePack

30

ИГРА 18+

pack

ВАЖНО

!!Акция!!

Alien_RageХит недели

RePack

MK11
pack

Забери бонус

RePack

jed

!!Акция!!

Alien_Rage

RePack

fifa19

RePack

Assassins Creed: Odyssey

RePack

NEED FOR SPEED™ PAYBACK

4 сезон

9 сезон

Бесстыжие 9 сезон

Все сериалы

все сериалы на PB.wtf

RePack

FAR CRY 5
  

Квест / Сезон: 1-2 / Серии: 1-16 из 16 (Андрей Загидуллин, Александр Данилов) [2015-2017, Детектив, криминал, приключения, WEB-DL 1080p] pb.wtf

Квест через торрент pb.wtf

Размер: 25.24 GB | Добавлен: 8 мес. назад | Торрент скачан:125 раз
Скачать  

07-02-2020 19:19 Квест Скачать торрент  

Квест
Год выпуска: 2015-2017
Страна: Россия
Жанр: Детектив, криминал, приключения
Продолжительность: ~ 00:45:00 серия
Перевод: Не требуется
Субтитры: отсутствуют

Режиссер: Андрей Загидуллин, Александр Данилов

rating

В ролях: Павел Прилучный, Агата Муцениеце, Марина Петренко, Илья Иосифов, Михаил Евланов, Петр Рыков, Алексей Франдетти, Виктория Корлякова, Роман Волобуев

Описание: Они не знали друг друга до того дня, пока в одном московском клубе их не отравили неизвестным ядом. И теперь тем из них, кто не умер на месте, а получил отложенную на 72 часа смерть, предстоит выполнить несколько заданий загадочного кукловода, который единственный в мире имеет антидот. Если задания будут выполнены, то наградой для выживших станет противоядие. В роли «карты острова сокровищ» — мистическое, полное сюрпризов наследие Якова Брюса — сподвижника Петра I, слывшего в народе колдуном и чернокнижником. Однако чтобы завладеть этим наследием, героям предстоит пройти вполне реальные испытания, которые некоторым из них будут стоить жизни. Опасный квест с первых же минут оправдывает себя — герои погружаются в мир тайн прошлого, о котором мало кто знает из современников. Одна загадка переплетается с другой, современная жизнь перемешивается с прошлым. Оказывается, в Москве полно странных загадок и тайн, которым позавидовал бы сам профессор Роберт Лэнгдон из «Кода да Винчи».

Качество: WEB-DL 1080p
Формат: MKV

Видео: 1920х1080 (2,40:1), 25 fps, AVC MPEG-4 (x264), High@L4.1 ~ 5000 kbps avg, 0.094 bit/pixel
Аудио: 48 kHz, AC3, 2 ch, 192 kbps avg
скриншот  скриншот  скриншот  скриншот  

Общее
Уникальный идентификатор : 177894416893638767035634154352668910402 (0x85D537EBE963CA3B85FF26BC85A52342)
Полное имя : D:\Kvest.WEB-DL.(1080p).ExKinoRay\Kvest.S.01.2015.WEB-DL.(1080p).ExKinoRay\Kvest.S01.E01.2015.WEB-DL.(1080p).ExKinoRay.mkv
Формат : Matroska
Версия формата : Version 4 / Version 2
Размер файла : 1,56 Гбайт
Продолжительность : 43 м. 21 с.
Общий поток : 5151 Кбит/сек
Дата кодирования : UTC 2020-02-02 15:48:06
Программа кодирования : mkvmerge v6.9.1 ('Blue Panther') 64bit built on Apr 18 2014 18:23:38
Библиотека кодирования : libebml v1.3.0 + libmatroska v1.4.1

Видео
Идентификатор : 1
Формат : AVC
Формат/Информация : Advanced Video Codec
Профиль формата : High@L4.1
Параметр CABAC формата : Да
Параметр RefFrames формата : 4 кадра
Идентификатор кодека : V_MPEG4/ISO/AVC
Продолжительность : 43 м. 21 с.
Битрейт : 4956 Кбит/сек
Ширина : 1920 пикселей
Высота : 1080 пикселей
Соотношение сторон : 16:9
Режим частоты кадров : Постоянный
Частота кадров : 25,000 кадров/сек
Цветовое пространство : YUV
Субдискретизация насыщенности : 4:2:0
Битовая глубина : 8 бит
Тип развёртки : Прогрессивная
Бит/(Пиксели*Кадры) : 0.094
Размер потока : 1,47 Гбайт (94%)
Default : Нет
Forced : Нет
Цветовой диапазон : Limited
Основные цвета : BT.709
Характеристики трансфера : BT.709
Коэффициенты матрицы : BT.709

Аудио
Идентификатор : 2
Формат : AC-3
Формат/Информация : Audio Coding 3
Расширение режима : CM (complete main)
Параметр Endianness формата : Big
Идентификатор кодека : A_AC3
Продолжительность : 43 м. 21 с.
Вид битрейта : Постоянный
Битрейт : 192 Кбит/сек
Каналы : 2 канала
Расположение каналов : Front: L R
Частота : 48,0 КГц
Частота кадров : 31,250 кадров/сек (1536 spf)
Метод сжатия : С потерями
Размер потока : 59,5 Мбайт (4%)
Язык : Russian
Default : Да
Forced : Нет

pb.wtf



Скачать Квест через торрент http://s018.radikal.ru/i517/1710/16/6f04914071af.jpg Скачать фильм Квест через торрент бесплантно в хорошем качестве Описание: Они не знали друг друга до того дня, пока в одном московском клубе их не отравили неизвестным ядом. И теперь тем из них, кто не ... 10 10 3
Info! Золотая раздача, скачанное не засчитывается.
Торрент: Зарегистрирован [2020-02-07 19:19] · скачан: 125 раз
Статус: √ проверено
Размер: 25.24 GB
Как cкачать? Как скачать Квест через торрент | qTorrent

28-11-2019 20:33  

Отключить всю рекламу на сайте

    Дорогой пользователь! Огромная просьба, поблагодарите релизера, оцените раздачу и оставьте свои комментарий, если Вы скачали Квест через торрент бесплатно! Внесите свою лепту в развитие PiratBit!
    Комментировать посты могут только пользователи прошедшие не сложную регистрацию
    Показать сообщения:    

    Квест через торрент
    Скачать бесплатно Квест
    Квест скачать торрент
    Квест смотреть онлайн
    Cкачать фильм Квест бесплатно
    Квест скачать торрент в хорошем качестве
    Квест смотреть онлайн бесплатно в хорошем качестве


    Вы не можете начинать темы
    Вы не можете отвечать на сообщения
    Вы не можете редактировать свои сообщения
    Вы не можете удалять свои сообщения
    Вы не можете голосовать в опросах
    Вы не можете прикреплять файлы к сообщениям
    Вы можете скачивать файлы