Ссылка на приватное зеркало нашего сайта всего за 1$. Внимание количество ограничено!!!

2 сезон

iTunes

1 сезон

1

2 сезон

2 сезон

iTunes

1 сезон

RePack

30

Ultimate

ВАЖНО

ИГРА 18+

pack

RePack

MK11
pack

Забери бонус

RePack

jed

!!Акция!!

Alien_Rage

RePack

fifa19

RePack

Assassins Creed: Odyssey

RePack

NEED FOR SPEED™ PAYBACK

4 сезон

9 сезон

Бесстыжие 9 сезон

Все сериалы

все сериалы на PB.wtf

RePack

FAR CRY 5
  

Удивительное путешествие доктора Дулиттла / Dolittle (Стивен Гейган) [2020, фэнтези, комедия, приключения, семейный, BD Remux 1080p] DUB (rus, ukr) [Лицензия] +MVO [HDRezka Studio] pb.wtf

Удивительное путешествие доктора Дулиттла через торрент pb.wtf

Размер: 23.46 GB | Добавлен: 6 мес. назад | Торрент скачан:21 раз
Скачать  

07-02-2020 21:28 Удивительное путешествие доктора Дулиттла Скачать торрент  

Удивительное путешествие доктора Дулиттла | Dolittle
Год выпуска: 2020
Страна: США, Китай, Великобритания
Студия: Perfect World Pictures, Team Downey, Universal Pictures
Жанр: фэнтези, комедия, приключения, семейный
Продолжительность: 01:41:23
Перевод:
#1: Дублированный | Лицензия
#2: Профессиональный многоголосый | HDRezka Studio
Субтитры: Русские (Forced, full), украинские (Forced), английские

Режиссер: Стивен Гейган

rating

В ролях: Роберт Дауни мл., Антонио Бандерас, Майкл Шин, Джим Бродбент, Джесси Бакли, Гарри Коллетт, Эмма Томпсон, Рами Малек, Джон Сина, Кумэйл Нанджиани

Описание: Семь лет назад доктор Дулиттл, прославленный врач-ветеринар, живущий в викторианской Англии, потерял свою жену. Теперь он ведет затворнический образ жизни, скрывшись за высокими стенами своего поместья. Экзотические животные из его коллекции - его единственная компания. Но когда неизвестная болезнь становится угрозой для жизни юной королевы, доктору Дулиттлу приходится покинуть свое убежище и отправиться в невероятное путешествие к мифическому острову. В поисках лекарства для королевы он вступит в схватку с беспощадными врагами, познакомится с диковинными существами и будет вынужден проявить недюжинное мужество и смекалку.

Качество: BD Remux 1080p
Формат: MKV

Видео: MPEG-4 AVC, 1920x1080, 28.4 Mbit/s, 23.976 fps
Аудио #01: 48 kHz, AC3, 5.1, 640 Kbps | Дублированный | RUS |
Аудио #02: 48 kHz, AC3, 5.1, 448 Kbps | HDRezka Studio | RUS |
Аудио #03: 48 kHz, AC3, 2.0, 192 Kbps | Дублированный | UKR |
Аудио #04: 48 kHz, TrueHD, 7.1, 2916 Kbps | Оригинал | ENG |
Аудио #05: 48 kHz, AC3, 5.1, 448 Kbps | Оригинал | ENG |
скриншот  скриншот  скриншот  скриншот  скриншот  

General
Unique ID : 97836924220859831221699157389758548787 (0x499AB4C9ADB2FC2DD993D73FD859CB33)
Complete name : E:Video111Dolittle.2020.Lic.BDREMUX.1080p.seleZen.mkv
Format : Matroska
Format version : Version 4
File size : 23.5 GiB
Duration : 1 h 41 min
Overall bit rate mode : Variable
Overall bit rate : 33.1 Mb/s
Movie name : Dolittle 2020 from селезень
Encoded date : UTC 2020-05-20 12:05:12
Writing application : mkvmerge v40.0.0 ('Old Town Road + Pony') 64-bit
Writing library : libebml v1.3.9 + libmatroska v1.5.2
Cover : Yes
Attachments : cover.jpg

Video
ID : 1
Format : AVC
Format/Info : Advanced Video Codec
Format profile : High@L4.1
Format settings : CABAC / 4 Ref Frames
Format settings, CABAC : Yes
Format settings, Reference : 4 frames
Codec ID : V_MPEG4/ISO/AVC
Duration : 1 h 41 min
Bit rate mode : Variable
Bit rate : 28.4 Mb/s
Maximum bit rate : 31.0 Mb/s
Width : 1 920 pixels
Height : 1 080 pixels
Display aspect ratio : 16:9
Frame rate mode : Constant
Frame rate : 23.976 (24000/1001) FPS
Color space : YUV
Chroma subsampling : 4:2:0
Bit depth : 8 bits
Scan type : Progressive
Bits/(Pixel*Frame) : 0.572
Stream size : 20.1 GiB (86%)
Language : English
Default : No
Forced : No

Audio #1
ID : 2
Format : AC-3
Format/Info : Audio Coding 3
Commercial name : Dolby Digital
Codec ID : A_AC3
Duration : 1 h 41 min
Bit rate mode : Constant
Bit rate : 640 kb/s
Channel(s) : 6 channels
Channel layout : L R C LFE Ls Rs
Sampling rate : 48.0 kHz
Frame rate : 31.250 FPS (1536 SPF)
Compression mode : Lossy
Stream size : 464 MiB (2%)
Title : Dub [License]
Language : Russian
Service kind : Complete Main
Default : Yes
Forced : Yes

Audio #2
ID : 3
Format : AC-3
Format/Info : Audio Coding 3
Commercial name : Dolby Digital
Codec ID : A_AC3
Duration : 1 h 41 min
Bit rate mode : Constant
Bit rate : 448 kb/s
Channel(s) : 6 channels
Channel layout : L R C LFE Ls Rs
Sampling rate : 48.0 kHz
Frame rate : 31.250 FPS (1536 SPF)
Compression mode : Lossy
Stream size : 325 MiB (1%)
Title : MVO [HDRezka Studio]
Language : Russian
Service kind : Complete Main
Default : No
Forced : No

Audio #3
ID : 4
Format : AC-3
Format/Info : Audio Coding 3
Commercial name : Dolby Digital
Codec ID : A_AC3
Duration : 1 h 41 min
Bit rate mode : Constant
Bit rate : 192 kb/s
Channel(s) : 2 channels
Channel layout : L R
Sampling rate : 48.0 kHz
Frame rate : 31.250 FPS (1536 SPF)
Compression mode : Lossy
Stream size : 139 MiB (1%)
Title : Dub
Language : Ukrainian
Service kind : Complete Main
Default : No
Forced : No

Audio #4
ID : 5
Format : MLP FBA 16-ch
Format/Info : Meridian Lossless Packing FBA with 16-channel presentation
Commercial name : Dolby TrueHD with Dolby Atmos
Codec ID : A_TRUEHD
Duration : 1 h 41 min
Bit rate mode : Variable
Bit rate : 2 916 kb/s
Maximum bit rate : 4 629 kb/s
Channel(s) : 8 channels
Channel layout : L R C LFE Ls Rs Lb Rb
Sampling rate : 48.0 kHz
Frame rate : 1 200.000 FPS (40 SPF)
Compression mode : Lossless
Stream size : 2.07 GiB (9%)
Title : Original
Language : English
Default : No
Forced : No
Number of dynamic objects : 11
Bed channel count : 1 channel
Bed channel configuration : LFE

Audio #5
ID : 6
Format : AC-3
Format/Info : Audio Coding 3
Commercial name : Dolby Digital
Codec ID : A_AC3
Duration : 1 h 41 min
Bit rate mode : Constant
Bit rate : 448 kb/s
Channel(s) : 6 channels
Channel layout : L R C LFE Ls Rs
Sampling rate : 48.0 kHz
Frame rate : 31.250 FPS (1536 SPF)
Compression mode : Lossy
Stream size : 325 MiB (1%)
Language : English
Service kind : Complete Main
Default : No
Forced : No

Text #1
ID : 7
Format : UTF-8
Codec ID : S_TEXT/UTF8
Codec ID/Info : UTF-8 Plain Text
Duration : 3 min 40 s
Bit rate : 113 b/s
Count of elements : 62
Stream size : 3.06 KiB (0%)
Title : Forced [For Dubbing]
Language : Russian
Default : Yes
Forced : Yes

Text #2
ID : 8
Format : UTF-8
Codec ID : S_TEXT/UTF8
Codec ID/Info : UTF-8 Plain Text
Duration : 4 min 11 s
Bit rate : 112 b/s
Count of elements : 72
Stream size : 3.47 KiB (0%)
Title : Forced [For HDRezka Studio]
Language : Russian
Default : No
Forced : No

Text #3
ID : 9
Format : UTF-8
Codec ID : S_TEXT/UTF8
Codec ID/Info : UTF-8 Plain Text
Duration : 1 h 32 min
Bit rate : 97 b/s
Count of elements : 1393
Stream size : 66.0 KiB (0%)
Title : Full
Language : Russian
Default : No
Forced : No

Text #4
ID : 10
Format : UTF-8
Codec ID : S_TEXT/UTF8
Codec ID/Info : UTF-8 Plain Text
Duration : 20 s 500 ms
Bit rate : 114 b/s
Count of elements : 4
Stream size : 293 Bytes (0%)
Title : Forced
Language : Ukrainian
Default : No
Forced : No

Text #5
ID : 11
Format : UTF-8
Codec ID : S_TEXT/UTF8
Codec ID/Info : UTF-8 Plain Text
Duration : 1 h 41 min
Bit rate : 73 b/s
Count of elements : 2060
Stream size : 54.8 KiB (0%)
Title : Full
Language : English
Default : No
Forced : No

Menu
00:00:00.000 : en:Chapter 01
00:04:22.595 : en:Chapter 02
00:09:36.826 : en:Chapter 03
00:14:31.245 : en:Chapter 04
00:18:37.324 : en:Chapter 05
00:20:57.798 : en:Chapter 06
00:23:02.172 : en:Chapter 07
00:29:30.226 : en:Chapter 08
00:35:58.156 : en:Chapter 09
00:39:08.471 : en:Chapter 10
00:45:47.745 : en:Chapter 11
00:48:28.906 : en:Chapter 12
00:53:06.933 : en:Chapter 13
00:59:13.466 : en:Chapter 14
01:04:55.141 : en:Chapter 15
01:11:16.772 : en:Chapter 16
01:17:05.996 : en:Chapter 17
01:23:36.011 : en:Chapter 18
01:30:02.063 : en:Chapter 19
01:32:58.364 : en:Chapter 20

pb.wtf



Скачать Удивительное путешествие доктора Дулиттла через торрент https://b.radikal.ru/b20/2003/6e/a2d881b63d19.jpg Скачать фильм Удивительное путешествие доктора Дулиттла через торрент бесплантно в хорошем качестве Описание: Семь лет назад доктор Дулиттл, прославленный врач-ветеринар, живущий в викторианской Англии, потерял свою жену. Теперь он ведет ... 9 10 29
Торрент: Зарегистрирован [2020-05-20 12:14] · скачан: 21 раз
Статус: √ проверено
Размер: 23.46 GB
Как cкачать? Как скачать Удивительное путешествие доктора Дулиттла через торрент | qTorrent

% Раздел Тема Автор DL S | L
Фильмы [HD 720p, 1080p] (Хороший звук DUB, MVO) [ 6.22 GB ] Удивительное путешествие доктора Дулиттла / Dolittle [2020 BDRip 720p] DUB [] - ExKinoRay Mr. Grab Скачать
5 | 0
Фильмы 2019-2020 [DVDrip, WEB-DLRip, HDrip] (DUB, MVO) [ 1.46 GB ] Удивительное путешествие доктора Дулиттла / Dolittle [2020 BDRip-AVC] DUB [] bober100 Скачать
1 | 0
Фильмы 2019-2020 [DVDrip, WEB-DLRip, HDrip] (DUB, MVO) [ 716 MB ] Удивительное путешествие доктора Дулиттла / Dolittle [2020 HDRip ""] coc900 Скачать
1 | 0
Фильмы 2019-2020 [DVDrip, WEB-DLRip, HDrip] (DUB, MVO) [ 1.46 GB ] Удивительное путешествие доктора Дулиттла / Dolittle [2020 BDRip] - [] Twi7ter Скачать
52 | 2
Ultra HD (UHD: 2K, 4K, 8K) — видео сверхвысокой чёткости [ 47.73 GB ] Удивительное путешествие доктора Дулиттла / Dolittle [2020 UHD BDRemux 2160p ] DUB [] +MVO [HDRezka Studio] bober100 Скачать
2 | 0
Ultra HD (UHD: 2K, 4K, 8K) — видео сверхвысокой чёткости [ 15.33 GB ] Удивительное путешествие доктора Дулиттла / Dolittle [2020 UHD BDRip 2160p] bober100 Скачать
2 | 0
Ultra HD (UHD: 2K, 4K, 8K) — видео сверхвысокой чёткости [ 42.18 GB ] Удивительное путешествие доктора Дулиттла / Dolittle [2020 UHD BDRemux 2160p ] DUB [] bober100 Скачать
1 | 0


Последний раз редактировалось: bober100 (2020-04-01 04:10), всего редактировалось 2 раз(а)

28-11-2019 20:33  

Отключить всю рекламу на сайте

    Дорогой пользователь! Огромная просьба, поблагодарите релизера, оцените раздачу и оставьте свои комментарий, если Вы скачали Удивительное путешествие доктора Дулиттла через торрент бесплатно! Внесите свою лепту в развитие PiratBit!
    Комментировать посты могут только пользователи прошедшие не сложную регистрацию
    Показать сообщения:    

    Удивительное путешествие доктора Дулиттла через торрент
    Скачать бесплатно Удивительное путешествие доктора Дулиттла
    Удивительное путешествие доктора Дулиттла скачать торрент
    Удивительное путешествие доктора Дулиттла смотреть онлайн
    Cкачать фильм Удивительное путешествие доктора Дулиттла бесплатно
    Удивительное путешествие доктора Дулиттла скачать торрент в хорошем качестве
    Удивительное путешествие доктора Дулиттла смотреть онлайн бесплатно в хорошем качестве


    Вы не можете начинать темы
    Вы не можете отвечать на сообщения
    Вы не можете редактировать свои сообщения
    Вы не можете удалять свои сообщения
    Вы не можете голосовать в опросах
    Вы не можете прикреплять файлы к сообщениям
    Вы можете скачивать файлы