Всегда рабочее зеркало без VPN и Proxy просто перед .vidak.icu напиши любое слово или цифру, Пример http://vnwr.vidak.icu

Лицензия

MVO

1 сезон

1

1 сезон

iTunes

1 сезон

13

1 сезон

Deluxe

pack

Рекомендуем

Repack

30

ВАЖНО

RePack

MK11

RePack

jed

RePack

fifa19

RePack

RDR2

RePack

NEED FOR SPEED™ PAYBACK

Кинопоиск HD

6 сезон

 Острые козырьки 6 сезон

Все сериалы

все сериалы на PB.wtf

RePack

FAR CRY 5
  
Magnet ссылка

Семья Сопрано / Клан Сопрано / The Sopranos / Сезон: 1 / Серии: 1-13 из 13 (Дэвид Чейз) [1999, драма, криминал, BDRip 720p] 2x[AVO] (Дмитрий «Goblin» Пучков, Юрий Сербин) + [MVO] (Amedia) pb.wtf

Семья Сопрано через торрент pb.wtf

Размер: 52.35 GB | Добавлен: 2 года 1 мес. назад | Торрент скачан:41 раз
Смотреть онлайн Семья Сопрано | Скачать    Ребята, помогите собрать деньги на оплату серверов!!!

08-02-2020 14:10 Семья Сопрано Скачать торрент  

Сопрано – Первый сезон
The Sopranos – First Season
Год выпуска: 1999
Страна: США | HBO
Жанр: драма, криминал
Продолжительность: 1x~ 01:00:00

Перевод #1: авторский (одноголосый, закадровый) Дмитрий «Goblin» Пучков (2020)
Перевод #2: авторский (одноголосый, закадровый) Юрий Сербин
Перевод #3: профессиональный (многоголосый, закадровый) Студия «Новамедиа» по заказу Amedia
Субтитры: русские (по переводу Amedia), английские
Режиссеры: Дэвид Чейз, Аллен Култер, Тим Ван Паттен, Стив Бушеми и другие

В ролях: Джеймс Гандолфини, Эди Фалко, Майкл Империоли, Лоррейн Бракко, Стив Ван Зандт, Тони Сирико, Винсент Пасторе, Роберт Айлер, Джеми-Линн Сиглер, Эйда Туртурро, Доминик Кианези, Дреа де Маттео, Нэнси Маршан, Стив Бушеми, Джон Вентимилья, Дэн Грималди, Кэтрин Нардуччи и другие
Описание: Повседневная жизнь современного Крестного отца: его мысли — стремительны, действия — решительны, а юмор — черен. Мафиозный босс Северного Джерси Тони Сопрано успешно справляется с проблемами «Семьи».

Но вот собственная семья немного подкачала: дети от рук отбились, брак — под угрозой, мамаша — пилит. Он надеется на помощь психиатра, но как тому рассказать обо всех своих проблемах, если связан омертой — обетом молчания, нарушать который нельзя под страхом смерти?


Исходник: The.Sopranos.S01.1080p.BDRemux.3xRus.Eng.TeamHD
Качество: BDRip 720p
Семпл: The.Sopranos.S01.Sample.720p.BluRay.3xRus.Eng.TeamHD.mkv

Контейнер: MKV
Видео: x264, 1280x720 (16:9), 23.976 fps, ~8500 kbps avg, ~0.385 bit/pixel
Аудио #1: 48 kHz, ac3, 5.1 ch, 640 kbps avg |Одноголосый закадровый, Дмитрий Пучков|
Аудио #2: 48 kHz, ac3, 5.1 ch, 640 kbps avg |Одноголосый закадровый, Юрий Сербин|
Аудио #3: 48 kHz, ac3, 5.1 ch, 640 kbps avg |Многоголосый закадровый, Amedia|
Аудио #4: 48 kHz, ac3, 5.1 ch, 640 kbps avg |Оригинал, английский|
Аудио #5: 48 kHz, ac3, 2.0 ch, 192 kbps avg |Комментарии, английский|
Субтитры: русские (по переводу Amedia), английские
Чаптеры: оригинальные неподписанные с bluray
Реклама: отсутствует
  • В сериале присутствуют сцены насилия и жестокости, сексуального характера, употребления алкоголя и наркотиков.
  • В переводах Д. Пучкова и Ю. Сербина присутствует ненормативная лексика.

  • Перевод Д. Пучкова новый, вышедший в 2020 году. C 31 января каждую пятницу на wink и amediateka будет выходить по два эпизода. Обновление раздачи по выходым. За шестым сезоном возвращайтесь в декабре.
  • Перевод Ю. Сербина доступен благодаря пользователям hdclub (r.i.p.), rutracker и e180. На данный момент переведено 3 сезона.

  • Just when I thought I was out, they pull me back in!

  • скриншот  скриншот  скриншот  
    S01E01. The Sopranos
    S01E02. 46 Long
    S01E03. Denial, Anger, Acceptance
    S01E04. Meadowlands
    General
    Complete name : The.Sopranos.S01E01.720p.BluRay.3xRus.Eng.TeamHD.mkv
    Format : Matroska
    Format version : Version 4 / Version 2
    File size : 4.72 GiB
    Duration : 1 h 0 min
    Overall bit rate : 11.2 Mb/s
    Encoded date : UTC 2020-06-09 19:37:25
    Writing application : mkvmerge v6.6.0 ('The Edge Of The In Between') built on Dec 1 2013 17:55:00
    Writing library : libebml v1.3.0 + libmatroska v1.4.1

    Video
    ID : 1
    Format : AVC
    Format/Info : Advanced Video Codec
    Format profile : [email protected]
    Format settings : CABAC / 9 Ref Frames
    Format settings, CABAC : Yes
    Format settings, ReFrames : 9 frames
    Codec ID : V_MPEG4/ISO/AVC
    Duration : 1 h 0 min
    Bit rate : 8 500 kb/s
    Width : 1 280 pixels
    Height : 720 pixels
    Display aspect ratio : 16:9
    Frame rate mode : Constant
    Frame rate : 23.976 (24000/1001) FPS
    Color space : YUV
    Chroma subsampling : 4:2:0
    Bit depth : 8 bits
    Scan type : Progressive
    Bits/(Pixel*Frame) : 0.385
    Stream size : 3.47 GiB (74%)
    Writing library : x264 core 160 r3000 33f9e14
    Encoding settings : cabac=1 / ref=9 / deblock=1:-3:-3 / analyse=0x3:0x113 / me=umh / subme=11 / psy=1 / psy_rd=1.00:0.00 / mixed_ref=1 / me_range=32 / chroma_me=1 / trellis=2 / 8x8dct=1 / cqm=0 / deadzone=21,11 / fast_pskip=0 / chroma_qp_offset=-3 / threads=12 / lookahead_threads=3 / sliced_threads=0 / nr=0 / decimate=1 / interlaced=0 / bluray_compat=0 / constrained_intra=0 / bframes=12 / b_pyramid=2 / b_adapt=2 / b_bias=0 / direct=3 / weightb=1 / open_gop=0 / weightp=2 / keyint=230 / keyint_min=23 / scenecut=40 / intra_refresh=0 / rc_lookahead=40 / rc=2pass / mbtree=0 / bitrate=8500 / ratetol=1.0 / qcomp=0.60 / qpmin=0 / qpmax=69 / qpstep=4 / cplxblur=20.0 / qblur=0.5 / vbv_maxrate=50000 / vbv_bufsize=62500 / nal_hrd=none / filler=0 / ip_ratio=1.40 / pb_ratio=1.30 / aq=3:0.80
    Language : English
    Default : Yes
    Forced : No

    Audio #1
    ID : 2
    Format : AC-3
    Format/Info : Audio Coding 3
    Codec ID : A_AC3
    Duration : 1 h 0 min
    Bit rate mode : Constant
    Bit rate : 640 kb/s
    Channel(s) : 6 channels
    Channel positions : Front: L C R, Side: L R, LFE
    Sampling rate : 48.0 kHz
    Frame rate : 31.250 FPS (1536 SPF)
    Bit depth : 16 bits
    Compression mode : Lossy
    Stream size : 275 MiB (6%)
    Title : DD 5.1 @ 640 kbps (AVO Goblin)
    Language : Russian
    Service kind : Complete Main
    Default : Yes
    Forced : No

    Audio #2
    ID : 3
    Format : AC-3
    Format/Info : Audio Coding 3
    Codec ID : A_AC3
    Duration : 1 h 0 min
    Bit rate mode : Constant
    Bit rate : 640 kb/s
    Channel(s) : 6 channels
    Channel positions : Front: L C R, Side: L R, LFE
    Sampling rate : 48.0 kHz
    Frame rate : 31.250 FPS (1536 SPF)
    Bit depth : 16 bits
    Compression mode : Lossy
    Stream size : 275 MiB (6%)
    Title : DD 5.1 @ 640 kbps (AVO Serbin)
    Language : Russian
    Service kind : Complete Main
    Default : No
    Forced : No

    Audio #3
    ID : 4
    Format : AC-3
    Format/Info : Audio Coding 3
    Codec ID : A_AC3
    Duration : 1 h 0 min
    Bit rate mode : Constant
    Bit rate : 640 kb/s
    Channel(s) : 6 channels
    Channel positions : Front: L C R, Side: L R, LFE
    Sampling rate : 48.0 kHz
    Frame rate : 31.250 FPS (1536 SPF)
    Bit depth : 16 bits
    Compression mode : Lossy
    Stream size : 275 MiB (6%)
    Title : DD 5.1 @ 640 kbps (MVO Novamedia)
    Language : Russian
    Service kind : Complete Main
    Default : No
    Forced : No

    Audio #4
    ID : 5
    Format : AC-3
    Format/Info : Audio Coding 3
    Codec ID : A_AC3
    Duration : 1 h 0 min
    Bit rate mode : Constant
    Bit rate : 640 kb/s
    Channel(s) : 6 channels
    Channel positions : Front: L C R, Side: L R, LFE
    Sampling rate : 48.0 kHz
    Frame rate : 31.250 FPS (1536 SPF)
    Bit depth : 16 bits
    Compression mode : Lossy
    Stream size : 275 MiB (6%)
    Title : DD 5.1 @ 640 kbps (English)
    Language : English
    Service kind : Complete Main
    Default : No
    Forced : No

    Audio #5
    ID : 6
    Format : AC-3
    Format/Info : Audio Coding 3
    Codec ID : A_AC3
    Duration : 1 h 0 min
    Bit rate mode : Constant
    Bit rate : 192 kb/s
    Channel(s) : 2 channels
    Channel positions : Front: L R
    Sampling rate : 48.0 kHz
    Frame rate : 31.250 FPS (1536 SPF)
    Bit depth : 16 bits
    Compression mode : Lossy
    Stream size : 82.4 MiB (2%)
    Title : DD 2.0 @ 192 kbps (Commentary)
    Language : English
    Service kind : Complete Main
    Default : No
    Forced : No

    Text #1
    ID : 7
    Format : UTF-8
    Codec ID : S_TEXT/UTF8
    Codec ID/Info : UTF-8 Plain Text
    Title : SRT (Novamedia)
    Language : Russian
    Default : No
    Forced : No

    Text #2
    ID : 8
    Format : UTF-8
    Codec ID : S_TEXT/UTF8
    Codec ID/Info : UTF-8 Plain Text
    Title : SRT (English)
    Language : English
    Default : No
    Forced : No

    Menu
    00:00:00.000 : en:00:00:00.000
    00:01:39.725 : en:00:01:39.725
    00:18:35.781 : en:00:18:35.781
    00:25:59.808 : en:00:25:59.808
    00:33:22.334 : en:00:33:22.334
    00:41:47.922 : en:00:41:47.922
    00:49:58.495 : en:00:49:58.495
    00:59:08.545 : en:00:59:08.545
    Когда раздача ведётся путём добавления новых серий, при каждом добавлении создётся новый торрент. Чтобы начать докачку новой серии, пользователям необходимо сделать следующее:
    (1) остановить скачивание,
    (2) удалить старый торрент у себя из клиента (старые серии удалять не надо),
    (3) скачать новый торрент и запустить его у себя в клиенте вместо старого, при этом указать клиенту путь в старую папку, куда и должно происходить скачивание новых серий.
    Ваш клиент при этом должен произвести хеширование (проверку) старой папки (если не производит сам - помогите ему сделать это), и будет докачивать только те серии, которых у вас ещё нет. Старые серии при этом не удаляются, а продолжают раздаваться!
    Eсли вы уже удалили старые серии, то предотвратить повторную закачку старых серий можно, отжав галочку в соответсвующих местах при запуске нового торрента. По возможности, желательно не удалять старые серии как можно дольше, чтобы релизёр не столько продолжал раздавать старые серии, а смог сконцентрироваться на новых.
    pb.wtf



    Скачать Семья Сопрано через торрент https://i111.fastpic.ru/big/2020/0201/23/49cc15d7763b1cbdcbc019ab7b056b23.jpg Скачать, смотреть онлайн Семья Сопрано бесплантно в хорошем качестве Описание: Повседневная жизнь современного Крестного отца: его мысли — стремительны, действия — решительны, а юмор — черен. Мафиозный босс ... 7.9 10 9
    Торрент: Зарегистрирован [2020-06-14 14:47] · скачан: 41 раз
    Статус: √ проверено
    Размер: 52.35 GB
    Как cкачать? Как скачать Семья Сопрано через торрент | UTorrent

    % Раздел Тема Автор DL S | L
    Клан Сопрано [ 51 GB ] Семья Сопрано / Клан Сопрано / The Sopranos / Сезон: 2 / Серии: 1-13 из 13 [2000 BDRip 720p] 2x[AVO] + [MVO] killermax2013 Скачать
    1 | 0
    Клан Сопрано [ 53.69 GB ] Семья Сопрано / Клан Сопрано / The Sopranos / Сезон: 3 / Серии: 1-13 из 13 [2001 BDRip 720p] 2x[AVO] + [MVO] killermax2013 Скачать
    1 | 0
    Клан Сопрано [ 1.39 GB ] Клан Сопрано / The Sopranos [2001 HDRip] [AVO] killermax2013 Скачать
    1 | 0


    Последний раз редактировалось: killermax2013 (2020-06-14 14:49), всего редактировалось 6 раз(а)

    28-11-2019 20:33  

    Отключить вcю реклaмy на сайте

    17-02-2020 16:24 Семья Сопрано Скачать торрент  

    Кто нашел 5 отличий перевода Гоблин-2020 от "старого" перевода - огласите весь список, пожалуйста?pb.wtf



    01-03-2020 15:43 Семья Сопрано Скачать торрент  

    Дмитрий "Гоблин" Пучков представил новый эксклюзивный перевод сериала «Семья Сопрано» для Wink и Amediateka. Дмитрий Пучков перевел и озвучил все шесть сезонов заново - это 86 эпизодов.
    Первые две серии в новом переводе появились в Wink и сервисе Amediateka 31 января, далее каждую пятницу будут выходить по два новых эпизода.
    В переводе присутствует НЕНОРМАТИВНАЯ ЛЕКСИКА!pb.wtf



    28-03-2020 15:30 Семья Сопрано Скачать торрент  

    А ужать все это никак?pb.wtf



    14-06-2020 14:58 Семья Сопрано Скачать торрент  

    Семья Сопрано..Семья Сольфеджио...Семья Гамма... pb.wtf



      Дорогой пользователь! Огромная просьба, поблагодарите релизера, оцените раздачу и оставьте свои комментарий, если Вы скачали Семья Сопрано через торрент бесплатно!
      Комментировать посты могут только пользователи прошедшие не сложную регистрацию
      Показать сообщения:    

      Семья Сопрано через торрент
      Скачать бесплатно Семья Сопрано
      Семья Сопрано скачать торрент
      Семья Сопрано смотреть онлайн
      Cкачать фильм Семья Сопрано бесплатно
      Семья Сопрано скачать торрент в хорошем качестве
      Семья Сопрано смотреть онлайн бесплатно в хорошем качестве


      Вы не можете начинать темы
      Вы не можете отвечать на сообщения
      Вы не можете редактировать свои сообщения
      Вы не можете удалять свои сообщения
      Вы не можете голосовать в опросах
      Вы не можете прикреплять файлы к сообщениям
      Вы можете скачивать файлы