Ссылка на приватное зеркало нашего сайта всего за 1$. Внимание количество ограничено!!!

2 сезон

iTunes

1 сезон

1

2 сезон

2 сезон

iTunes

1 сезон

RePack

30

Новинка

ВАЖНО

ИГРА 18+

pack

RePack

MK11
pack

Забери бонус

RePack

jed

!!Акция!!

Alien_Rage

RePack

fifa19

RePack

Assassins Creed: Odyssey

RePack

NEED FOR SPEED™ PAYBACK

4 сезон

9 сезон

Бесстыжие 9 сезон

Все сериалы

все сериалы на PB.wtf

RePack

FAR CRY 5
  

Грех / Il Peccato (Андрей Кончаловский) [2019, драма, биография, история, WEB-DL 1080p] DUB [iTunes] pb.wtf

Грех через торрент pb.wtf

Размер: 4.53 GB | Добавлен: 9 мес. назад | Торрент скачан:177 раз
Скачать  

09-02-2020 05:47 Грех Скачать торрент  

Грех | Il Peccato
Год выпуска: 2019
Страна: Россия, Италия
Жанр: драма, биография, история
Продолжительность: 02:10:38
Перевод: Дублированное | iTunes
Субтитры: отсутствуют

Режиссер: Андрей Кончаловский

rating

В ролях: Альберто Тестоне, Якоб Диль, Франческо Гаудиелло, Адриано Кьярамида, Джанлука Гуиди, Орсо Мария Гуэррини, Александра Дейнега, Глен Блэкхолл, Анита Пититто, Массимо Де Франкович

Описание: Картина рассказывает об испытаниях на творческом пути гениального художника и скульптора Микеланджело Буонарроти, за преданность которого борются два самых могущественных семейства.

Качество: WEB-DL 1080p
Формат: MKV

Видео: MPEG-4 AVC, 4577 Kb/s, 1440x1080
Аудио: Russian: AC3, 6 ch, 384 Kb/s
скриншот  скриншот  скриншот  скриншот  

General
Unique ID: 177685822183600427578169481624452320655 (0x85AD0B6885EAF48489F4F3C4AA17CD8F)
Complete name: Greh.2019.WEB-DL.1080p.ELEKTRI4KA.UNIONGANG.mkv
Format: Matroska
Format version: Version 4 / Version 2
File size: 4.53 GiB
Duration: 2 h 10 min
Overall bit rate: 4 963 kb/s
Encoded date: UTC 2020-02-07 20:06:25
Writing application: mkvmerge v8.3.0 ('Over the Horizon') 64bit
Writing library: libebml v1.3.1 + libmatroska v1.4.2

Video
ID: 1
Format: AVC
Format/Info: Advanced Video Codec
Format profile: High@L4
Format settings, CABAC: Yes
Format settings, ReFrames: 5 frames
Codec ID: V_MPEG4/ISO/AVC
Duration: 2 h 10 min
Bit rate: 4 577 kb/s
Width: 1 440 pixels
Height: 1 080 pixels
Display aspect ratio: 4:3
Frame rate mode: Constant
Frame rate: 25.000 FPS
Color space: YUV
Chroma subsampling: 4:2:0
Bit depth: 8 bits
Scan type: Progressive
Bits/(Pixel*Frame): 0.118
Stream size: 4.18 GiB (92%)
Title: iTunes (ELEKTRI4KA.UNIONGANG)
Language: English
Default: Yes
Forced: No
Color range: Limited
Color primaries: BT.709
Transfer characteristics: BT.709
Matrix coefficients: BT.709

Audio
ID: 2
Format: AC-3
Format/Info: Audio Coding 3
Mode extension: CM (complete main)
Format settings, Endianness: Big
Codec ID: A_AC3
Duration: 2 h 10 min
Bit rate mode: Constant
Bit rate: 384 kb/s
Channel(s): 6 channels
Channel positions: Front: L C R, Side: L R, LFE
Sampling rate: 48.0 kHz
Frame rate: 31.250 FPS (1536 spf)
Bit depth: 16 bits
Compression mode: Lossy
Stream size: 359 MiB (8%)
Title: iTunes (ELEKTRI4KA.UNIONGANG)
Language: Russian
Default: Yes
Forced: No

Menu
00:00:00.000: en:?????????? 1
00:08:32.558: en:?????????? 2
00:17:41.798: en:?????????? 3
00:26:44.638: en:?????????? 4
00:36:57.717: en:?????????? 5
00:46:46.956: en:?????????? 6
00:56:13.476: en:?????????? 7
01:05:35.756: en:?????????? 8
01:15:24.516: en:?????????? 9
01:24:27.036: en:?????????? 10
01:31:53.556: en:?????????? 11
01:40:13.196: en:?????????? 12
01:48:51.475: en:?????????? 13
01:57:09.235: en:?????????? 14

pb.wtf



Скачать Грех через торрент https://i1.imageban.ru/out/2020/02/07/1a4d93cc40e6ffd29381e986e09f54de.png Скачать фильм Грех через торрент бесплантно в хорошем качестве Описание: Картина рассказывает об испытаниях на творческом пути гениального художника и скульптора Микеланджело Буонарроти, за преданность ... 9 10 7
Торрент: Зарегистрирован [2020-02-09 05:47] · скачан: 177 раз
Статус: √ проверено
Размер: 4.53 GB
Как cкачать? Как скачать Грех через торрент | qTorrent

% Раздел Тема Автор DL S | L
Фильмы (WEB-DL 720p, 1080p) [ 4.04 GB ] Грех / Il Peccato [2019 биография история WEB-DL 720p] bober100 Скачать
2 | 0
Фильмы 2019-2020 [DVDrip, WEB-DLRip, HDrip] (DUB, MVO) [ 2.06 GB ] Грех / Il Peccato [2019 биография история WEB-DLRip] bober100 Скачать
2 | 0
Фильмы 2019-2020 [DVDrip, WEB-DLRip, HDrip] (DUB, MVO) [ 1.46 GB ] Грех / Il Peccato [2019 биография история WEB-DLRip] bober100 Скачать
1 | 0
Порно фильмы с сюжетом [ 1.01 GB ] Грехи Домохозяйки: Порок И Добродетель / I Peccati Di Una Casalinga 2: Il Vizio E La Virtu [1999 Feature Foreign DVDRip 384p] sheker187 Скачать
1 | 0
Порно фильмы с сюжетом [ 1.26 GB ] Семейные грехи / Peccati Di Famiglia [2003 Incest Milf Double Penetration All Sex Anal Oral DVDRip Оригинал] Pir@tya2010 Скачать
1 | 0
Порно фильмы с сюжетом [ 1.29 GB ] Вдова де Бюда-Фес / Греховный Плод / Сучка для всех / Охота за деньгами / La Veuve de Buda-Fesse / Il Frutto del Peccato / La Figa di Tutti / Money Hunting [1993 Feature European Anal DP A2M. DVDRip Оригинал] Pir@tya2010 Скачать
1 | 0
Гонзо [ 1.48 GB ] Грех живёт в доме / O Pecado Mora em Casa [2013 All Sex Oral Anal Gonzo Big Tits Hardcore DP Group Sex Orgy DVDRip-AVC Оригинал] sheker187 Скачать
1 | 0

28-11-2019 20:33  

Отключить всю рекламу на сайте

09-02-2020 06:14 Грех Скачать торрент  

смотрел в кинотеатре, отлично выспался.pb.wtf



    Дорогой пользователь! Огромная просьба, поблагодарите релизера, оцените раздачу и оставьте свои комментарий, если Вы скачали Грех через торрент бесплатно! Внесите свою лепту в развитие PiratBit!
    Комментировать посты могут только пользователи прошедшие не сложную регистрацию
    Показать сообщения:    

    Грех через торрент
    Скачать бесплатно Грех
    Грех скачать торрент
    Грех смотреть онлайн
    Cкачать фильм Грех бесплатно
    Грех скачать торрент в хорошем качестве
    Грех смотреть онлайн бесплатно в хорошем качестве


    Вы не можете начинать темы
    Вы не можете отвечать на сообщения
    Вы не можете редактировать свои сообщения
    Вы не можете удалять свои сообщения
    Вы не можете голосовать в опросах
    Вы не можете прикреплять файлы к сообщениям
    Вы можете скачивать файлы