2 сезон

iTunes

WEBRip

1

2 сезон

iTunes

1 сезон

1 сезон

RePack

30

Ultimate

ВАЖНО

ИГРА 18+

pack

RePack

MK11
pack

Легкие деньги

RePack

jed

RePack

fifa19

RePack

RDR2

RePack

NEED FOR SPEED™ PAYBACK

4 сезон

9 сезон

Бесстыжие 9 сезон

Все сериалы

все сериалы на PB.wtf

RePack

FAR CRY 5

Anonymous, доброй ночи, мы не успеваем собрать деньги на оплату серверов за февраль, помогите нам пожалуйста в это трудное время. В качестве благодарности мы отключим Вам всю рекламу на сайте (укажите свой ник в строку Ваше имя)!

×
  
Magnet ссылка

Грешница / Грешники / The Sinner / Сезон: 3 / Серии: 1-8 из 8 (Антонио Кампос, Брэд Андерсон) [2020, Триллер, драма, криминал, детектив, WEB-DLRip] MVO [LostFilm] pb.wtf

Грешница через торрент pb.wtf

Размер: 5.16 GB | Добавлен: 11 мес. назад | Торрент скачан:10 раз
Скачать  

09-02-2020 07:20 Грешница Скачать торрент  

Грешница | Грешники | The Sinner Год выпуска: 2020
Страна: США
Жанр: Триллер, драма, криминал, детектив
Продолжительность: ~ 00:45:00 серия
Перевод: Профессиональный многоголосый | LostFilm
Субтитры: Русские, английские (SDH)

Режиссер: Антонио Кампос, Брэд Андерсон

rating

В ролях: Джессика Бил, Кристофер Эбботт, Дон Норвуд, Эбби Миллер, Билл Пуллман, Даниэль Бёрджесс, Энид Грэхэм, С.Дж. Уилсон, Джекоб Питтс, Сьюзан Пурфар, Кэтрин Эрбе, Роберт Куччиоли, Роберт Фунаро

Описание: Молодая женщина Кора отдыхает на пляже с мужем и 5-тилетним сыном. В сидящей поодаль группе начинает играть музыка, которая неожиданно приводит Кору в крайнее возбуждение. Она бросается с ножом, которым резала фрукты, к одному из парней и наносит несколько ударов, от которых тот умирает. Женщина сама потрясена своим неожиданным поступком и покорно сдается полиции. Она признает вину и решительно отказывается от адвокатов. Так начинается эта запутанная история. За расследование берется детектив – единственный человек, который не верит в версию о маниакальной тяге Коры к убийству. Даже когда находят еще одну жертву - пропавшую сестру обвиняемой, на которой найдена кровь Коры, он продолжает до конца распутывать зловещий клубок событий, чтобы найти мотив, который привел к убийству на пляже.

Качество: WEB-DLRip
Формат: AVI

Видео: XviD, 720x400, 23,976 fps, ~ 1599 kbps
Аудио 1: 48 kHz, AC3 2 ch, ~ 192 kbps|LostFilm|
Аудио 2: 48 kHz, AC3 2 ch, ~ 192 kbps
скриншот  скриншот  скриншот  скриншот  скриншот  

Format : AVI
Format/Info : Audio Video Interleave
File size : 702 MiB
Duration : 49mn 8s
Overall bit rate : 1 997 Kbps
Movie name : Грешница 3х01: Часть 1
Director : Бёдвар (WEB-DLRip 400p)
Writing application : VirtualDubModRus 1.5.10.2 (build 2542/release)
Comment : 09.02.2020

Video
ID : 0
Format : MPEG-4 Visual
Format profile : Advanced Simple@L5
Format settings, BVOP : 1
Format settings, QPel : No
Format settings, GMC : No warppoints
Format settings, Matrix : Default (MPEG)
Codec ID : XVID
Codec ID/Hint : XviD
Duration : 49mn 8s
Bit rate : 1 599 Kbps
Width : 720 pixels
Height : 400 pixels
Display aspect ratio : 16:9
Frame rate : 23.976 (24000/1001) fps
Color space : YUV
Chroma subsampling : 4:2:0
Bit depth : 8 bits
Scan type : Progressive
Compression mode : Lossy
Bits/(Pixel*Frame) : 0.232
Stream size : 562 MiB (80%)
Writing library : XviD 67

Audio #1
ID : 1
Format : AC-3
Format/Info : Audio Coding 3
Mode extension : CM (complete main)
Format settings, Endianness : Big
Codec ID : 2000
Duration : 49mn 8s
Bit rate mode : Constant
Bit rate : 192 Kbps
Channel(s) : 2 channels
Channel positions : Front: L R
Sampling rate : 48.0 KHz
Frame rate : 31.250 fps (1536 spf)
Compression mode : Lossy
Stream size : 67.5 MiB (10%)
Alignment : Split accross interleaves
Interleave, duration : 42 ms (1.00 video frame)
Interleave, preload duratio : 500 ms
Title : LostFilm (rus)

Audio #2
ID : 2
Format : AC-3
Format/Info : Audio Coding 3
Mode extension : CM (complete main)
Format settings, Endianness : Big
Codec ID : 2000
Duration : 49mn 8s
Bit rate mode : Constant
Bit rate : 192 Kbps
Channel(s) : 2 channels
Channel positions : Front: L R
Sampling rate : 48.0 KHz
Frame rate : 31.250 fps (1536 spf)
Compression mode : Lossy
Stream size : 67.5 MiB (10%)
Alignment : Split accross interleaves
Interleave, duration : 42 ms (1.00 video frame)
Interleave, preload duratio : 500 ms
Title : Original (eng)

Внимание! Раздача ведётся путём добавления новых серий; при каждом добавлении создаётся новый торрент. Чтобы начать докачку новой серии,пользователям необходимо сделать следующее:
(1) остановить скачивание,
(2) удалить старый торрент у себя из клиента (старые серии удалять не надо),
(3) скачать новый торрент и запустить его у себя в клиенте вместо старого, при этом указать клиенту путь в старую папку куда и должнопроисходить скачивание новых серий.

Ваш клиент при этом должен произвести хеширование (проверку) старой папки (если не производит сам - помогите ему сделать это), и будет докачивать только те серии
которых у вас ещё нет. Старые серии при этом не удаляются, а продолжают раздаваться!

Eсли вы уже удалили старые серии, то предотвратить повторную закачку старых серий можно, отжав галочку в соответствующих местах при запуске нового торрента.

По возможности, желательно не удалять старые серии как можно дольше чтобы релизёр не столько продолжал раздавать старые серии, а смог сконцентрироваться на новых.
pb.wtf



Скачать Грешница через торрент http://i96.fastpic.ru/big/2017/0922/c2/c1ac90aba1d3e78c0d95519737ecc2c2.png Скачать фильм Грешница через торрент бесплантно в хорошем качестве Описание: Молодая женщина Кора отдыхает на пляже с мужем и 5-тилетним сыном. В сидящей поодаль группе начинает играть музыка, которая ... 5.5 10 6
Торрент: Зарегистрирован [2020-03-29 15:04] · скачан: 10 раз
Статус: √ проверено
Размер: 5.16 GB
Как cкачать? Как скачать Грешница через торрент | UTorrent

% Раздел Тема Автор DL S | L
Зарубежные сериалы [ 9.04 GB ] Грешница / Грешники / The Sinner / Сезон: 3 / Серии: 1-8 из 8 [2020 WEB-DL 720p] MVO [TVShows] bober100 Скачать
1 | 0
Зарубежные сериалы [ 20.34 GB ] Грешница / Грешники / The Sinner / Сезон: 3 / Серии: 1-8 из 8 [2020 WEB-DL 1080p] MVO [TVShows] bober100 Скачать
1 | 0
Зарубежные сериалы [ 19.51 GB ] Грешница / Грешники / The Sinner / Сезон: 3 / Серии: 1-8 из 8 [2020 WEB-DL 1080p] MVO [Jaskier] bober100 Скачать
1 | 0
Зарубежные сериалы [ 8.22 GB ] Грешница / Грешники / The Sinner / Сезон: 3 / Серии: 1-8 из 8 [2020 WEB-DL 720p] MVO [Jaskier] bober100 Скачать
1 | 0
Зарубежные сериалы [ 4.7 GB ] Грешница / Грешники / The Sinner / Сезон: 3 / Серии: 1-8 из 8 [2020 WEB-DLRip] MVO [Jaskier] bober100 Скачать
1 | 0
Зарубежные сериалы [ 9.54 GB ] Грешница / Грешники / The Sinner / Сезон: 3 / Серии: 1-8 из 8 [2020 WEB-DL 720p] MVO [LostFilm] bober100 Скачать
2 | 0
Зарубежные сериалы [ 20.83 GB ] Грешница / Грешники / The Sinner / Сезон: 3 / Серии: 1-8 из 8 [2020 WEB-DL 1080p] MVO [LostFilm] bober100 Скачать
1 | 0

28-11-2019 20:33  

Отключить всю рекламу на сайте

    Дорогой пользователь! Огромная просьба, поблагодарите релизера, оцените раздачу и оставьте свои комментарий, если Вы скачали Грешница через торрент бесплатно! Внесите свою лепту в развитие PiratBit!
    Комментировать посты могут только пользователи прошедшие не сложную регистрацию
    Показать сообщения:    

    Грешница через торрент
    Скачать бесплатно Грешница
    Грешница скачать торрент
    Грешница смотреть онлайн
    Cкачать фильм Грешница бесплатно
    Грешница скачать торрент в хорошем качестве
    Грешница смотреть онлайн бесплатно в хорошем качестве


    Вы не можете начинать темы
    Вы не можете отвечать на сообщения
    Вы не можете редактировать свои сообщения
    Вы не можете удалять свои сообщения
    Вы не можете голосовать в опросах
    Вы не можете прикреплять файлы к сообщениям
    Вы можете скачивать файлы