2 сезон

iTunes

MVO

1

2 сезон

iTunes

iTunes

1 сезон

RePack

30

Ultimate

ВАЖНО

ИГРА 18+

pack

RePack

MK11
pack

Легкие деньги

RePack

jed

RePack

fifa19

RePack

RDR2

RePack

NEED FOR SPEED™ PAYBACK

4 сезон

9 сезон

Бесстыжие 9 сезон

Все сериалы

все сериалы на PB.wtf

RePack

FAR CRY 5

Anonymous, доброй ночи, мы не успеваем собрать деньги на оплату серверов за декабрь и январь, помогите нам пожалуйста в это трудное время. В качестве благодарности мы отключим Вам всю рекламу на сайте (укажите свой ник в строку Ваше имя)!

×
  
Magnet ссылка

Грешница / Грешники / The Sinner / Сезон: 3 / Серии: 1-8 из 8 (Антонио Кампос, Брэд Андерсон) [2020, Триллер, драма, криминал, детектив, WEB-DL 1080p] MVO [LostFilm] pb.wtf

Грешница через торрент pb.wtf

Размер: 20.83 GB | Добавлен: 9 мес. назад | Торрент скачан:9 раз
Скачать  

09-02-2020 07:39 Грешница Скачать торрент  

Грешница | Грешники | The Sinner Год выпуска: 2020
Страна: США
Жанр: Триллер, драма, криминал, детектив
Продолжительность: ~ 00:45:00 серия
Перевод: Профессиональный многоголосый | LostFilm
Субтитры: Русские (Full |«LostFilm»|, отдельно), английские (SDH)

Режиссер: Антонио Кампос, Брэд Андерсон

rating

В ролях: Джессика Бил, Кристофер Эбботт, Дон Норвуд, Эбби Миллер, Билл Пуллман, Даниэль Бёрджесс, Энид Грэхэм, С.Дж. Уилсон, Джекоб Питтс, Сьюзан Пурфар, Кэтрин Эрбе, Роберт Куччиоли, Роберт Фунаро

Описание: Молодая женщина Кора отдыхает на пляже с мужем и 5-тилетним сыном. В сидящей поодаль группе начинает играть музыка, которая неожиданно приводит Кору в крайнее возбуждение. Она бросается с ножом, которым резала фрукты, к одному из парней и наносит несколько ударов, от которых тот умирает. Женщина сама потрясена своим неожиданным поступком и покорно сдается полиции. Она признает вину и решительно отказывается от адвокатов. Так начинается эта запутанная история. За расследование берется детектив – единственный человек, который не верит в версию о маниакальной тяге Коры к убийству. Даже когда находят еще одну жертву - пропавшую сестру обвиняемой, на которой найдена кровь Коры, он продолжает до конца распутывать зловещий клубок событий, чтобы найти мотив, который привел к убийству на пляже.

Качество: WEB-DL 1080p
Формат: MKV

Видео: 1920x1080 (16:9), 23.976 fps, ~ 8200 Kbps
Аудио №1: AC3, 48,0 kHz, 6 ch, 640 kbps | LostFilm
Аудио №2: AC3, 48,0 kHz, 6 ch, 640 kbps | Original


Реклама: Отсутствует | Чистый видеоряд (без заставки и логотипа)!
Исходник: The.Sinner.S03.1080p.AMZN.WEB-DL.DDP5.1.x264-NTb
скриншот  скриншот  скриншот  скриншот  

Общее
Уникальный идентификатор : 171629221460263961626430300987935104573 (0x811E95F00E6C6301A5311B9C8C871E3D)
Полное имя : D:\The_Sinner_(s03)_LostFilm_1080p\The.Sinner.2020.S03E01.1080p.AMZN.WEB-DL.DD5.1.x264-NTb_EniaHD.mkv
Формат : Matroska
Версия формата : Version 2
Размер файла : 3,31 Гбайт
Продолжительность : 49 м. 8 с.
Общий поток : 9630 Кбит/сек
Дата кодирования : UTC 2020-02-09 07:18:14
Программа кодирования : mkvmerge v4.9.1 ('Ich will') сборка от Jul 11 2011 23:53:15
Библиотека кодирования : libebml v1.2.1 + libmatroska v1.1.1

Видео
Идентификатор : 1
Формат : AVC
Формат/Информация : Advanced Video Codec
Профиль формата : High@L4
Параметр CABAC формата : Да
Параметр RefFrames формата : 4 кадра
Идентификатор кодека : V_MPEG4/ISO/AVC
Продолжительность : 49 м. 8 с.
Вид битрейта : Постоянный
Битрейт : 8159 Кбит/сек
Номинальный битрейт : 10000 Кбит/сек
Ширина : 1920 пикселей
Высота : 1080 пикселей
Соотношение сторон : 16:9
Режим частоты кадров : Постоянный
Частота кадров : 23,976 (24000/1001) кадра/сек
Цветовое пространство : YUV
Субдискретизация насыщенности : 4:2:0
Битовая глубина : 8 бит
Тип развёртки : Прогрессивная
Бит/(Пиксели*Кадры) : 0.164
Размер потока : 2,80 Гбайт (85%)
Заголовок : Release by EniaHD
Default : Да
Forced : Нет
Цветовой диапазон : Limited
Основные цвета : BT.709
Характеристики трансфера : BT.709
Коэффициенты матрицы : BT.709

Аудио #1
Идентификатор : 2
Формат : AC-3
Формат/Информация : Audio Coding 3
Расширение режима : CM (complete main)
Параметр Endianness формата : Big
Идентификатор кодека : A_AC3
Продолжительность : 49 м. 8 с.
Вид битрейта : Постоянный
Битрейт : 640 Кбит/сек
Каналы : 6 каналов
Расположение каналов : Front: L C R, Side: L R, LFE
Частота : 48,0 КГц
Частота кадров : 31,250 кадров/сек (1536 spf)
Метод сжатия : С потерями
Размер потока : 225 Мбайт (7%)
Заголовок : LostFilm
Язык : Russian
Default : Да
Forced : Нет

Аудио #2
Идентификатор : 3
Формат : AC-3
Формат/Информация : Audio Coding 3
Расширение режима : CM (complete main)
Параметр Endianness формата : Big
Идентификатор кодека : A_AC3
Продолжительность : 49 м. 8 с.
Вид битрейта : Постоянный
Битрейт : 640 Кбит/сек
Каналы : 6 каналов
Расположение каналов : Front: L C R, Side: L R, LFE
Частота : 48,0 КГц
Частота кадров : 31,250 кадров/сек (1536 spf)
Метод сжатия : С потерями
Размер потока : 225 Мбайт (7%)
Язык : English
Default : Нет
Forced : Нет

Текст
Идентификатор : 4
Формат : UTF-8
Идентификатор кодека : S_TEXT/UTF8
Идентификатор кодека/Информация : UTF-8 Plain Text
Заголовок : SDH
Язык : English
Default : Нет
Forced : Нет

Внимание! Раздача ведётся путём добавления новых серий; при каждом добавлении создаётся новый торрент. Чтобы начать докачку новой серии,пользователям необходимо сделать следующее:
(1) остановить скачивание,
(2) удалить старый торрент у себя из клиента (старые серии удалять не надо),
(3) скачать новый торрент и запустить его у себя в клиенте вместо старого, при этом указать клиенту путь в старую папку куда и должнопроисходить скачивание новых серий.

Ваш клиент при этом должен произвести хеширование (проверку) старой папки (если не производит сам - помогите ему сделать это), и будет докачивать только те серии
которых у вас ещё нет. Старые серии при этом не удаляются, а продолжают раздаваться!

Eсли вы уже удалили старые серии, то предотвратить повторную закачку старых серий можно, отжав галочку в соответствующих местах при запуске нового торрента.

По возможности, желательно не удалять старые серии как можно дольше чтобы релизёр не столько продолжал раздавать старые серии, а смог сконцентрироваться на новых.
pb.wtf



Скачать Грешница через торрент http://i96.fastpic.ru/big/2017/0922/c2/c1ac90aba1d3e78c0d95519737ecc2c2.png Скачать фильм Грешница через торрент бесплантно в хорошем качестве Описание: Молодая женщина Кора отдыхает на пляже с мужем и 5-тилетним сыном. В сидящей поодаль группе начинает играть музыка, которая ... 10 10 2
Торрент: Зарегистрирован [2020-03-29 13:47] · скачан: 9 раз
Статус: √ проверено
Размер: 20.83 GB
Как cкачать? Как скачать Грешница через торрент | UTorrent

% Раздел Тема Автор DL S | L
Зарубежные сериалы [ 9.04 GB ] Грешница / Грешники / The Sinner / Сезон: 3 / Серии: 1-8 из 8 [2020 WEB-DL 720p] MVO [TVShows] bober100 Скачать
1 | 0
Зарубежные сериалы [ 20.34 GB ] Грешница / Грешники / The Sinner / Сезон: 3 / Серии: 1-8 из 8 [2020 WEB-DL 1080p] MVO [TVShows] bober100 Скачать
1 | 0
Зарубежные сериалы [ 19.51 GB ] Грешница / Грешники / The Sinner / Сезон: 3 / Серии: 1-8 из 8 [2020 WEB-DL 1080p] MVO [Jaskier] bober100 Скачать
1 | 0
Зарубежные сериалы [ 8.22 GB ] Грешница / Грешники / The Sinner / Сезон: 3 / Серии: 1-8 из 8 [2020 WEB-DL 720p] MVO [Jaskier] bober100 Скачать
1 | 0
Зарубежные сериалы [ 4.7 GB ] Грешница / Грешники / The Sinner / Сезон: 3 / Серии: 1-8 из 8 [2020 WEB-DLRip] MVO [Jaskier] bober100 Скачать
1 | 0
Зарубежные сериалы [ 9.54 GB ] Грешница / Грешники / The Sinner / Сезон: 3 / Серии: 1-8 из 8 [2020 WEB-DL 720p] MVO [LostFilm] bober100 Скачать
1 | 0
Зарубежные сериалы [ 5.16 GB ] Грешница / Грешники / The Sinner / Сезон: 3 / Серии: 1-8 из 8 [2020 WEB-DLRip] MVO [LostFilm] bober100 Скачать
1 | 0

28-11-2019 20:33  

Отключить всю рекламу на сайте

    Дорогой пользователь! Огромная просьба, поблагодарите релизера, оцените раздачу и оставьте свои комментарий, если Вы скачали Грешница через торрент бесплатно! Внесите свою лепту в развитие PiratBit!
    Комментировать посты могут только пользователи прошедшие не сложную регистрацию
    Показать сообщения:    

    Грешница через торрент
    Скачать бесплатно Грешница
    Грешница скачать торрент
    Грешница смотреть онлайн
    Cкачать фильм Грешница бесплатно
    Грешница скачать торрент в хорошем качестве
    Грешница смотреть онлайн бесплатно в хорошем качестве


    Вы не можете начинать темы
    Вы не можете отвечать на сообщения
    Вы не можете редактировать свои сообщения
    Вы не можете удалять свои сообщения
    Вы не можете голосовать в опросах
    Вы не можете прикреплять файлы к сообщениям
    Вы можете скачивать файлы