2 сезон

iTunes

MVO

1

2 сезон

iTunes

iTunes

1 сезон

RePack

30

Новинка

ВАЖНО

ИГРА 18+

pack

RePack

MK11
pack

Легкие деньги

RePack

jed

RePack

fifa19

RePack

RDR2

RePack

NEED FOR SPEED™ PAYBACK

4 сезон

9 сезон

Бесстыжие 9 сезон

Все сериалы

все сериалы на PB.wtf

RePack

FAR CRY 5

Anonymous, добрый вечер, мы не успеваем собрать деньги на оплату серверов за декабрь и январь, помогите нам пожалуйста в это трудное время. В качестве благодарности мы отключим Вам всю рекламу на сайте (укажите свой ник в строку Ваше имя)!

×
  
Magnet ссылка

Грешница / Грешники / The Sinner / Сезон: 3 / Серии: 1-8 из 8 (Антонио Кампос, Брэд Андерсон) [2020, Триллер, драма, криминал, детектив, WEB-DL 720p] MVO [Jaskier] pb.wtf

Грешница через торрент pb.wtf

Размер: 8.22 GB | Добавлен: 9 мес. назад | Торрент скачан:4 раза
Скачать  

09-02-2020 13:37 Грешница Скачать торрент  

✘ Грешница | Грешники | The Sinner ✘
✦ Год выпуска: 2020
✦ Страна: США
✦ Жанр: Триллер, драма, криминал, детектив
✦ Продолжительность: ~ 00:45:00 серия
✦ Перевод: Профессиональный многоголосый | Jaskier
✦ Субтитры: | английские |

✦ Режиссер: Антонио Кампос, Брэд Андерсон

rating

В ролях: Билл Пуллман, Джессика Хехт, Париса Фитц-Хенли, Эдди Мартинес, Мэтт Бомер и др.

Описание: Детективу Гарри Эмброузу поручено обычное дело из рутинной текучки — автомобильная авария произошла где-то на севере Нью-Йорка. Он отправляется на происшествие и хочет поскорее закрыть дело, но тут к нему обращается участник этой аварии, некто Джейми, добропорядочный житель Дорчестера и будущий отец, который надеется, что Эмброуз поможет ему после аварии.

✦ Качество: WEB-DL 720p
✦ Формат: | MKV | H.264 |

✦ Видео: ~ 3200 kbps | 1280x720 (16:9), 23.976 fps
✦ Аудио RU: AC3 | 48.0 KHz | 6 ch | 384 kbps
✦ Аудио EN: AC3 | 48.0 KHz | 6 ch | 384 kbps
скриншот  скриншот  скриншот  

Общее
Уникальный идентификатор : 238070359164001886296174732959346691774 (0xB31AAEF0951E62C7B6C6CE4B6EC98EBE)
Полное имя : D:\The Sinner. Season 3 (WEB-DL l 720p l Jaskier)\The.Sinner.S03E01.720p.WEB-DL.DD5.1.H.264-Jaskier.mkv
Формат : Matroska
Версия формата : Version 2
Размер файла : 1,37 Гбайт
Продолжительность : 49 м. 8 с.
Общий поток : 4000 Кбит/сек
Дата кодирования : UTC 2020-02-09 13:09:44
Программа кодирования : mkvmerge v7.8.0 ('River Man') 32bit built on Apr 3 2015 12:11:22
Библиотека кодирования : libebml v1.3.1 + libmatroska v1.4.2

Видео
Идентификатор : 1
Формат : AVC
Формат/Информация : Advanced Video Codec
Профиль формата : High@L3.1
Параметр CABAC формата : Да
Параметр RefFrames формата : 4 кадра
Идентификатор кодека : V_MPEG4/ISO/AVC
Продолжительность : 49 м. 8 с.
Вид битрейта : Постоянный
Битрейт : 3152 Кбит/сек
Номинальный битрейт : 6000 Кбит/сек
Ширина : 1280 пикселей
Высота : 720 пикселей
Соотношение сторон : 16:9
Режим частоты кадров : Постоянный
Частота кадров : 23,976 (24000/1001) кадра/сек
Цветовое пространство : YUV
Субдискретизация насыщенности : 4:2:0
Битовая глубина : 8 бит
Тип развёртки : Прогрессивная
Бит/(Пиксели*Кадры) : 0.143
Размер потока : 1,08 Гбайт (79%)
Язык : English
Default : Да
Forced : Нет
Цветовой диапазон : Limited
Основные цвета : BT.709
Характеристики трансфера : BT.709
Коэффициенты матрицы : BT.709

Аудио #1
Идентификатор : 2
Формат : AC-3
Формат/Информация : Audio Coding 3
Расширение режима : CM (complete main)
Параметр Endianness формата : Big
Идентификатор кодека : A_AC3
Продолжительность : 49 м. 8 с.
Вид битрейта : Постоянный
Битрейт : 384 Кбит/сек
Каналы : 6 каналов
Расположение каналов : Front: L C R, Side: L R, LFE
Частота : 48,0 КГц
Частота кадров : 31,250 кадров/сек (1536 spf)
Метод сжатия : С потерями
Размер потока : 135 Мбайт (10%)
Заголовок : Jaskier
Язык : Russian
Default : Да
Forced : Нет

Аудио #2
Идентификатор : 3
Формат : AC-3
Формат/Информация : Audio Coding 3
Расширение режима : CM (complete main)
Параметр Endianness формата : Big
Идентификатор кодека : A_AC3
Продолжительность : 49 м. 8 с.
Вид битрейта : Постоянный
Битрейт : 384 Кбит/сек
Каналы : 6 каналов
Расположение каналов : Front: L C R, Side: L R, LFE
Частота : 48,0 КГц
Частота кадров : 31,250 кадров/сек (1536 spf)
Метод сжатия : С потерями
Размер потока : 135 Мбайт (10%)
Язык : English
Default : Нет
Forced : Нет

Текст
Идентификатор : 4
Формат : UTF-8
Идентификатор кодека : S_TEXT/UTF8
Идентификатор кодека/Информация : UTF-8 Plain Text
Язык : English
Default : Нет
Forced : Нет

Когда раздача ведётся путём добавления новых серий, при каждом добавлении создётся новый торрент. Чтобы начать докачку новой серии, пользователям необходимо сделать следующее:
(1) остановить скачивание,
(2) удалить старый торрент у себя из клиента (старые серии удалять не надо),
(3) скачать новый торрент и запустить его у себя в клиенте вместо старого, при этом указать клиенту путь в старую папку, куда и должно происходить скачивание новых серий.
Ваш клиент при этом должен произвести хеширование (проверку) старой папки (если не производит сам - помогите ему сделать это), и будет докачивать только те серии, которых у вас ещё нет. Старые серии при этом не удаляются, а продолжают раздаваться!
Eсли вы уже удалили старые серии, то предотвратить повторную закачку старых серий можно, отжав галочку в соответсвующих местах при запуске нового торрента. По возможности, желательно не удалять старые серии как можно дольше, чтобы релизёр не столько продолжал раздавать старые серии, а смог сконцентрироваться на новых.
pb.wtf



Скачать Грешница через торрент https://b.radikal.ru/b02/2002/9e/4cd79bb4963c.png Скачать фильм Грешница через торрент бесплантно в хорошем качестве Описание: Детективу Гарри Эмброузу поручено обычное дело из рутинной текучки — автомобильная авария произошла где-то на севере Нью-Йорка. ... 9 10 3
Торрент: Зарегистрирован [2020-03-29 13:43] · скачан: 4 раз
Статус: √ проверено
Размер: 8.22 GB
Как cкачать? Как скачать Грешница через торрент | UTorrent

% Раздел Тема Автор DL S | L
Зарубежные сериалы [ 9.04 GB ] Грешница / Грешники / The Sinner / Сезон: 3 / Серии: 1-8 из 8 [2020 WEB-DL 720p] MVO [TVShows] bober100 Скачать
1 | 0
Зарубежные сериалы [ 20.34 GB ] Грешница / Грешники / The Sinner / Сезон: 3 / Серии: 1-8 из 8 [2020 WEB-DL 1080p] MVO [TVShows] bober100 Скачать
1 | 0
Зарубежные сериалы [ 19.51 GB ] Грешница / Грешники / The Sinner / Сезон: 3 / Серии: 1-8 из 8 [2020 WEB-DL 1080p] MVO [Jaskier] bober100 Скачать
1 | 0
Зарубежные сериалы [ 4.7 GB ] Грешница / Грешники / The Sinner / Сезон: 3 / Серии: 1-8 из 8 [2020 WEB-DLRip] MVO [Jaskier] bober100 Скачать
1 | 0
Зарубежные сериалы [ 9.54 GB ] Грешница / Грешники / The Sinner / Сезон: 3 / Серии: 1-8 из 8 [2020 WEB-DL 720p] MVO [LostFilm] bober100 Скачать
1 | 0
Зарубежные сериалы [ 20.83 GB ] Грешница / Грешники / The Sinner / Сезон: 3 / Серии: 1-8 из 8 [2020 WEB-DL 1080p] MVO [LostFilm] bober100 Скачать
1 | 0
Зарубежные сериалы [ 5.16 GB ] Грешница / Грешники / The Sinner / Сезон: 3 / Серии: 1-8 из 8 [2020 WEB-DLRip] MVO [LostFilm] bober100 Скачать
1 | 0

28-11-2019 20:33  

Отключить всю рекламу на сайте

    Дорогой пользователь! Огромная просьба, поблагодарите релизера, оцените раздачу и оставьте свои комментарий, если Вы скачали Грешница через торрент бесплатно! Внесите свою лепту в развитие PiratBit!
    Комментировать посты могут только пользователи прошедшие не сложную регистрацию
    Показать сообщения:    

    Грешница через торрент
    Скачать бесплатно Грешница
    Грешница скачать торрент
    Грешница смотреть онлайн
    Cкачать фильм Грешница бесплатно
    Грешница скачать торрент в хорошем качестве
    Грешница смотреть онлайн бесплатно в хорошем качестве


    Вы не можете начинать темы
    Вы не можете отвечать на сообщения
    Вы не можете редактировать свои сообщения
    Вы не можете удалять свои сообщения
    Вы не можете голосовать в опросах
    Вы не можете прикреплять файлы к сообщениям
    Вы можете скачивать файлы