Лицензия

MVO

1

1 сезон

Лицензия

Лицензия

13

MVO

1 сезон

Deluxe Edition

pack

Рекомендуем

30

Repack

ВАЖНО

ВАЖНО

Ghostwire

RePack

jed

RePack

fifa19

RePack

RDR2

RePack

NEED FOR SPEED™ PAYBACK

RePack

Кинопоиск HD

 Острые козырьки 6 сезон

6 сезон

FAR CRY 6

RePack

Лицензия

MVO

1

1 сезон

1 сезон

Лицензия

  

Змеи и лестницы / Серии: 1-4 из 4 (Наталия Микрюкова) [2020, Детектив, SATRip]

Змеи и лестницы через торрент pb.wtf

Размер: 2.19 GB | Добавлен: 2 года 7 мес. назад | Торрент скачан:87 раз
Смотреть онлайн Змеи и лестницы | Скачать   

09-02-2020 17:37 Змеи и лестницы Скачать торрент  

Змеи и лестницы
Год выпуска: 2020
Страна: Россия
Жанр: Детектив
Продолжительность: ~ 00:45:00 серия
Субтитры: отсутствуют

Режиссер: Наталия Микрюкова

В ролях: Надежда Борисова, Станислав Бондаренко, Антонио Виллани, Руслан Корнеков, Алёна Олькина, Светлана Брюханова, Майя Вознесенская, Игорь Денисов, Олег Ткачёв

Описание: Из вод холодного озера извлечён автомобиль с находящимся внутри телом. Утопленником оказывается иностранец, приехавший в Россию за месяц до этого. Ни цель его прибытия, ни круг знакомств, ни обстоятельства исчезновения неизвестны. Ясно лишь одно: произошло убийство. И раскрыть его предстоит старшему следователю Александре Зыряновой и капитану Борису Августу. Трудно придумать двух более непохожих людей – и по методу ведения дел, и по характеру, и по отношению к жизни. Сериал снят по одноименному роману Виктории Платовой.

Качество: SATRip
Формат: AVI

Видео: XviD, ~ 1500 Кбит/с, 720x400
Аудио: AC3, 2 ch, 192 Кбит/с
скриншот  скриншот  скриншот  скриншот  

Общее
Полное имя : D:\Змеи и лестницы avi\01. Змеи и лестницы.avi
Формат : AVI
Формат/Информация : Audio Video Interleave
Размер файла : 549 Мбайт
Продолжительность : 45 м. 4 с.
Общий поток : 1702 Кбит/сек
Программа кодирования : VirtualDubMod 1.5.10.3 | www.virtualdub-fr.org || (build 2550/release)
Библиотека кодирования : VirtualDubMod build 2550/release

Видео
Идентификатор : 0
Формат : MPEG-4 Visual
Профиль формата : Advanced [email protected]
Параметр BVOP формата : 1
Параметр QPel формата : Нет
Параметр GMC формата : Без точки перехода
Параметр матрицы формата : Default (MPEG)
Идентификатор кодека : XVID
Идентификатор кодека/Подсказка : XviD
Продолжительность : 45 м. 4 с.
Битрейт : 1500 Кбит/сек
Ширина : 720 пикселей
Высота : 400 пикселей
Соотношение сторон : 16:9
Частота кадров : 25,000 кадров/сек
Цветовое пространство : YUV
Субдискретизация насыщенности : 4:2:0
Битовая глубина : 8 бит
Тип развёртки : Прогрессивная
Метод сжатия : С потерями
Бит/(Пиксели*Кадры) : 0.208
Размер потока : 484 Мбайт (88%)
Библиотека кодирования : XviD 73

Аудио
Идентификатор : 1
Формат : AC-3
Формат/Информация : Audio Coding 3
Расширение режима : CM (complete main)
Параметр Endianness формата : Big
Идентификатор кодека : 2000
Продолжительность : 45 м. 4 с.
Вид битрейта : Постоянный
Битрейт : 192 Кбит/сек
Каналы : 2 канала
Расположение каналов : Front: L R
Частота : 48,0 КГц
Частота кадров : 31,250 кадров/сек (1536 spf)
Метод сжатия : С потерями
Размер потока : 61,9 Мбайт (11%)
Выравнивание : Разделение по промежуткам
Продолжительность промежутка : 40 мс. (1,00 видеокадр)
Время предзагрузки промежутка : 500 мс.




Скачать Змеи и лестницы через торрент http://i111.fastpic.ru/big/2020/0208/51/ccd2f81ab2a9db197bed335f7f171b51.jpg Скачать, смотреть онлайн Змеи и лестницы бесплантно в хорошем качестве Описание: Из вод холодного озера извлечён автомобиль с находящимся внутри телом. Утопленником оказывается иностранец, приехавший в Россию ... 10 10 6
Торрент: Зарегистрирован [2020-02-09 17:37] · скачан: 87 раз
Статус: √ проверено
Размер: 2.19 GB
Как cкачать? Как скачать Змеи и лестницы через торрент | UTorrent

% Раздел Тема Автор DL S | L
Наши сериалы [ 2.33 GB ] Змеи и лестницы / Серии: 1-4 из 4 | | DLRip-AVC bober100 Скачать
1 | 0
Наши сериалы [ 2.34 GB ] Змеи и лестницы / Серии: 1-4 из 4 | | DLRip bober100 Скачать
1 | 0
Наши сериалы [ 2.18 GB ] Змеи и лестницы / Серии: 1-4 из 4 | | SATRip-AVC aleksan55 Скачать
1 | 0

28-11-2019 20:33  

Отключить вcю реклaмy на сайте

    Дорогой пользователь! Огромная просьба, поблагодарите релизера, оцените раздачу и оставьте свои комментарий, если Вы скачали Змеи и лестницы через торрент бесплатно!!
    Комментировать посты могут только пользователи прошедшие не сложную регистрацию
    Показать сообщения:    


    Змеи и лестницы через торрент
    Скачать бесплатно Змеи и лестницы
    Змеи и лестницы скачать торрент
    Змеи и лестницы смотреть онлайн
    Cкачать фильм Змеи и лестницы бесплатно
    Змеи и лестницы скачать торрент в хорошем качестве
    Змеи и лестницы смотреть онлайн бесплатно в хорошем качестве
    Вы не можете начинать темы
    Вы не можете отвечать на сообщения
    Вы не можете редактировать свои сообщения
    Вы не можете удалять свои сообщения
    Вы не можете голосовать в опросах
    Вы не можете прикреплять файлы к сообщениям
    Вы можете скачивать файлы