Ссылка на приватное зеркало нашего сайта всего за 1$. Внимание количество ограничено!!!

2 сезон

iTunes

1 сезон

1

iTunes

iTunes

iTunes

1 сезон

RePack

30

ИГРА 18+

pack

ВАЖНО

!!Акция!!

Alien_RageХит недели

RePack

MK11
pack

Забери бонус

RePack

jed

!!Акция!!

Alien_Rage

RePack

fifa19

RePack

Assassins Creed: Odyssey

RePack

NEED FOR SPEED™ PAYBACK

4 сезон

9 сезон

Бесстыжие 9 сезон

Все сериалы

все сериалы на PB.wtf

RePack

FAR CRY 5
  

Замок на песке / Серии: 1-4 из 4 (Алексей Гусев) [2019, Мелодрама, HDTV 1080i] pb.wtf

Замок на песке через торрент pb.wtf

Размер: 9.61 GB | Добавлен: 8 мес. назад | Торрент скачан:10 раз
Скачать  

09-02-2020 19:07 Замок на песке Скачать торрент  

Замок на песке
Год выпуска: 2019
Страна: Украина
Жанр: Мелодрама
Продолжительность: ~ 00:45:00 серия
Перевод: Не требуется
Субтитры: отсутствуют

Режиссер: Алексей Гусев



В ролях: Мария Аниканова, Анна Кошмал, Алексей Зубков, Юрий Фелипенко, Виктор Васильев, Владислав Писаренко, Александр Кобзарь, Игорь Пазыч, Алина Гросу, Клавдия Дрозд, Владислав Мамчур, Сергей Калантай, Елена Стефанская, Дарина Лобода, Сергей Радченко

Описание: В центре истории – Людмила и Александр. Он – медицинское светило, главврач клиники ЭКО, блестящий репродуктолог. Она – его правая рука, помощница и вдохновитель всех побед. Красавица-дочь Лиза – студентка-отличница и продолжатель медицинской династии, дом – полная чаша. Но однажды Людмила получает странное послание: фотографию могилы их студенческой подруги, погибшей 19 лет назад. После этого жизнь пары переворачивается: в их доме случается пожар, в клинике начинаются финансовые проблемы, а Людмила узнает об изменах мужа... Благополучная и красивая жизнь на деле оказывается лишь иллюзий. Но, быть может, на месте разрушенного «песочного» замка теперь получится построить что-то настоящее?

Качество: HDTV 1080i
Формат: TS

Видео: MPEG-4 AVC, ~ 7100 Кбит/с, 1920x1080, 25 кадр/с
Аудио: Русский (MP2, 2 ch, 192 Кбит/с)
скриншот  скриншот  скриншот  скриншот  

Общее
Идентификатор : 1 (0x1)
Полное имя : D:\Zamok.na.peske.2019.HDTV.1080i\Zamok.na.peske.01.2019.HDTV.1080i.ts
Формат : MPEG-TS
Размер файла : 2,52 Гбайт
Продолжительность : 47 м. 15 с.
Режим общего битрейта : Переменный
Общий поток : 7644 Кбит/сек

Видео
Идентификатор : 2911 (0xB5F)
Идентификатор меню : 1379 (0x563)
Формат : AVC
Формат/Информация : Advanced Video Codec
Профиль формата : High@L4
Параметр CABAC формата : Да
Параметр RefFrames формата : 4 кадра
Идентификатор кодека : 27
Продолжительность : 47 м. 15 с.
Битрейт : 7072 Кбит/сек
Ширина : 1920 пикселей
Высота : 1080 пикселей
Соотношение сторон : 16:9
Частота кадров : 25,000 кадров/сек
Цветовое пространство : YUV
Субдискретизация насыщенности : 4:2:0
Битовая глубина : 8 бит
Тип развёртки : MBAFF
Метод сохранения типа развёртки : Чередующиеся поля
Порядок развёртки : Верхнее поле первое
Бит/(Пиксели*Кадры) : 0.136
Размер потока : 2,33 Гбайт (93%)

Аудио
Идентификатор : 2912 (0xB60)
Идентификатор меню : 1379 (0x563)
Формат : MPEG Audio
Версия формата : Version 1
Профиль формата : Layer 2
Идентификатор кодека : 3
Продолжительность : 47 м. 15 с.
Вид битрейта : Постоянный
Битрейт : 192 Кбит/сек
Каналы : 2 канала
Частота : 48,0 КГц
Метод сжатия : С потерями
Задержка видео : -200 мс.
Размер потока : 64,9 Мбайт (3%)
Язык : Russian

pb.wtf



Скачать Замок на песке через торрент https://d.radikal.ru/d01/2002/38/ff09a642128a.jpg Скачать фильм Замок на песке через торрент бесплантно в хорошем качестве Описание: В центре истории – Людмила и Александр. Он – медицинское светило, главврач клиники ЭКО, блестящий репродуктолог. Она – его правая ... 7.5 10 4
Торрент: Зарегистрирован [2020-02-09 19:07] · скачан: 10 раз
Статус: √ проверено
Размер: 9.61 GB
Как cкачать? Как скачать Замок на песке через торрент | qTorrent

% Раздел Тема Автор DL S | L
Наши сериалы [ 4.64 GB ] Замок на песке / Серии: 1-4 из 4 [2019 Мело HDTVRip 720p] bober100 Скачать
1 | 0

28-11-2019 20:33  

Отключить всю рекламу на сайте

    Дорогой пользователь! Огромная просьба, поблагодарите релизера, оцените раздачу и оставьте свои комментарий, если Вы скачали Замок на песке через торрент бесплатно! Внесите свою лепту в развитие PiratBit!
    Комментировать посты могут только пользователи прошедшие не сложную регистрацию
    Показать сообщения:    

    Замок на песке через торрент
    Скачать бесплатно Замок на песке
    Замок на песке скачать торрент
    Замок на песке смотреть онлайн
    Cкачать фильм Замок на песке бесплатно
    Замок на песке скачать торрент в хорошем качестве
    Замок на песке смотреть онлайн бесплатно в хорошем качестве


    Вы не можете начинать темы
    Вы не можете отвечать на сообщения
    Вы не можете редактировать свои сообщения
    Вы не можете удалять свои сообщения
    Вы не можете голосовать в опросах
    Вы не можете прикреплять файлы к сообщениям
    Вы можете скачивать файлы