Ссылка на приватное зеркало нашего сайта всего за 1$. Внимание количество ограничено!!!

2 сезон

iTunes

1 сезон

1

2 сезон

2 сезон

iTunes

1 сезон

RePack

30

Новинка

ВАЖНО

ИГРА 18+

pack

RePack

MK11
pack

Забери бонус

RePack

jed

!!Акция!!

Alien_Rage

RePack

fifa19

RePack

Assassins Creed: Odyssey

RePack

NEED FOR SPEED™ PAYBACK

4 сезон

9 сезон

Бесстыжие 9 сезон

Все сериалы

все сериалы на PB.wtf

RePack

FAR CRY 5
  

Безумцы / Бесстрашные / Делилер / Deliler (Осман Кая) [2018, История, военный, WEB-DL 1080p] MVO [iTunes] pb.wtf

Безумцы через торрент pb.wtf

Раздают: 32 [ 218 KB/s ]
Размер: 4.11 GB | Добавлен: 9 мес. назад | Торрент скачан:213 раз
Скачать  

09-02-2020 20:32 Безумцы Скачать торрент  

Безумцы | Бесстрашные | Делилер | Deliler
Год выпуска: 2018
Страна: Турция
Жанр: История, военный
Продолжительность: 02:00:34
Перевод: Профессиональный многоголосый | iTunes
Субтитры: отсутствуют

Режиссер: Осман Кая

rating

В ролях: Джем Учан, Эркан Петеккая, Нур Феттахоглу, Йеткин Дикинджилер, Гюльшах Шахин, Исмаил Филиз, Берат Эфэ Парлар, Камиль Гюлер

Описание: Действия фильма разворачиваются в середине 15 века. Султан Фатих Мехмет направляет Влада Цепеша в Валахию, хотя вначале он оставался верен Османской Империи, затем проявляется его жестокость. Узнав об этом Султан Мехмет не желает умалчивать, он не намерен терпеть издевательства над людьми, какой бы нации или веры они ни были. Он отправляет к Владу своего посланника с предупреждением. Влад возвращает посла воткнув кол в голову. Рассвирепев Султан Фатих Мехмет создает "Союз безумцев", в который входят семь бесстрашных и доблестных героев, вместе с Куманом, который является ушами и глазами всего происходящего. Семь бесстрашных и доблестных героев; Гёккурт, Ашкар, Чеби, Сускун, Конгар и Адсыз. Вместо того, чтобы скрываться от войска Влада и самого Влада, эти семь безумцев пытаются отомстить тысячам обидчикам одним за другим. В конце этого пути находится Влад Тепеш и его армия.

Качество: WEB-DL 1080p
Формат: MKV

Видео: MPEG-4 AVC, 4398 Кбит/с, 1920x804
Аудио: Русский (AC3, 6 ch, 384 Кбит/с)
скриншот  скриншот  скриншот  скриншот  

Video
ID : 1
Format : AVC
Format/Info : Advanced Video Codec
Format profile : High@L4
Format settings : CABAC / 5 Ref Frames
Format settings, CABAC : Yes
Format settings, Reference : 5 frames
Codec ID : V_MPEG4/ISO/AVC
Duration : 2 h 0 min
Bit rate : 4 398 kb/s
Width : 1 920 pixels
Height : 804 pixels
Display aspect ratio : 2.40:1
Frame rate mode : Constant
Frame rate : 24.000 FPS
Color space : YUV
Chroma subsampling : 4:2:0
Bit depth : 8 bits
Scan type : Progressive
Bits/(Pixel*Frame) : 0.119
Stream size : 3.70 GiB (90%)
Title : BESSTRASHNYE_2018_WEB-DL_1080p-BLUEBIRD
Language : English
Default : Yes
Forced : No
Color range : Limited
Color primaries : BT.709
Transfer characteristics : BT.709
Matrix coefficients : BT.709

Audio
ID : 2
Format : AC-3
Format/Info : Audio Coding 3
Commercial name : Dolby Digital
Codec ID : A_AC3
Duration : 2 h 0 min
Bit rate mode : Constant
Bit rate : 384 kb/s
Channel(s) : 6 channels
Channel layout : L R C LFE Ls Rs
Sampling rate : 48.0 kHz
Frame rate : 31.250 FPS (1536 SPF)
Compression mode : Lossy
Stream size : 331 MiB (8%)
Title : [MVO] DD 5.1 @ 384 kbps (iTunes)
Language : Russian
Service kind : Complete Main
Default : Yes
Forced : No

Menu
00:00:00.000 : en:Глава 1
00:06:20.666 : en:Глава 2
00:14:45.874 : en:Глава 3
00:24:41.040 : en:Глава 4
00:32:04.998 : en:Глава 5
00:40:28.623 : en:Глава 6
00:48:45.206 : en:Глава 7
00:57:01.206 : en:Глава 8
01:03:50.622 : en:Глава 9
01:10:21.788 : en:Глава 10
01:18:58.746 : en:Глава 11
01:25:46.912 : en:Глава 12
01:32:38.412 : en:Глава 13
01:40:04.120 : en:Глава 14
01:47:24.286 : en:Глава 15

pb.wtf



Скачать Безумцы через торрент https://b.radikal.ru/b09/2002/6e/8e0fb8b4d395.png Скачать фильм Безумцы через торрент бесплантно в хорошем качестве Описание: Действия фильма разворачиваются в середине 15 века. Султан Фатих Мехмет направляет Влада Цепеша в Валахию, хотя вначале он ... 10 10 8
Торрент: Зарегистрирован [2020-02-09 20:32] · скачан: 213 раз
Статус: √ проверено
Размер: 4.11 GB
Как cкачать? Как скачать Безумцы через торрент | qTorrent

% Раздел Тема Автор DL S | L
Фильмы 2018 [DVDrip, WEB-DLRip, HDrip] (DUB, MVO) [ 2.13 GB ] Безумцы / Бесстрашные / Делилер / Deliler [2018 История военный BDRip] MVO Twi7ter Скачать
9 | 1
Фильмы 2018 [DVDrip, WEB-DLRip, HDrip] (DUB, MVO) [ 1.46 GB ] Безумцы / Бесстрашные / Делилер / Deliler [2018 История военный BDRip] MVO Twi7ter Скачать
82 | 1
Фильмы 2018 [DVDrip, WEB-DLRip, HDrip] (DUB, MVO) [ 2.83 GB ] Безумцы / Бесстрашные / Делилер / Deliler [2018 История военный BDRip-AVC] MVO bober100 Скачать
5 | 0
Фильмы 2018 [DVDrip, WEB-DLRip, HDrip] (DUB, MVO) [ 1.46 GB ] Безумцы / Бесстрашные / Делилер / Deliler [2018 История военный BDRip] MVO bober100 Скачать
27 | 1
Фильмы (WEB-DL 720p, 1080p) [ 3.69 GB ] Безумцы / Бесстрашные / Делилер / Deliler [2018 История военный WEB-DL 720p] MVO bober100 Скачать
2 | 0

28-11-2019 20:33  

Отключить всю рекламу на сайте

10-02-2020 05:07 Безумцы Скачать торрент  

вы вот описание копипастите. Вы сами хоть читаете ???
Султан Махмет отправляет Цепеша в Валахию. Сперва Махмет верен Империи, потом он узнает что он жестокий, а когда узнает об этом - не желает молчать ...pb.wtf



10-02-2020 23:16 Безумцы Скачать торрент  

Гёккурт, Ашкар, Чеби, Сускун, Конгар и Адсыз Я так разговариваю когда бухой. За раздачу спасибо...pb.wtf



    Дорогой пользователь! Огромная просьба, поблагодарите релизера, оцените раздачу и оставьте свои комментарий, если Вы скачали Безумцы через торрент бесплатно! Внесите свою лепту в развитие PiratBit!
    Комментировать посты могут только пользователи прошедшие не сложную регистрацию
    Показать сообщения:    

    Безумцы через торрент
    Скачать бесплатно Безумцы
    Безумцы скачать торрент
    Безумцы смотреть онлайн
    Cкачать фильм Безумцы бесплатно
    Безумцы скачать торрент в хорошем качестве
    Безумцы смотреть онлайн бесплатно в хорошем качестве


    Вы не можете начинать темы
    Вы не можете отвечать на сообщения
    Вы не можете редактировать свои сообщения
    Вы не можете удалять свои сообщения
    Вы не можете голосовать в опросах
    Вы не можете прикреплять файлы к сообщениям
    Вы можете скачивать файлы