Ссылка на приватное зеркало нашего сайта всего за 1$. Внимание количество ограничено!!!

2 сезон

iTunes

1 сезон

1

2 сезон

2 сезон

iTunes

1 сезон

RePack

30

Новинка

ВАЖНО

ИГРА 18+

pack

RePack

MK11
pack

Забери бонус

RePack

jed

!!Акция!!

Alien_Rage

RePack

fifa19

RePack

Assassins Creed: Odyssey

RePack

NEED FOR SPEED™ PAYBACK

4 сезон

9 сезон

Бесстыжие 9 сезон

Все сериалы

все сериалы на PB.wtf

RePack

FAR CRY 5
  

Спрячь бабушку в холодильнике / Metti la nonna in freezer (Джанкарло Фонтана, Джузеппе Стази) [2018, Комедия, WEB-DL 1080p] MVO [iTunes] pb.wtf

Спрячь бабушку в холодильнике через торрент pb.wtf

Раздают: 3 [ 0 KB/s ]
Размер: 3.67 GB | Добавлен: 9 мес. назад | Торрент скачан:177 раз
Скачать  

10-02-2020 02:48 Спрячь бабушку в холодильнике Скачать торрент  

Спрячь бабушку в холодильнике | Metti la nonna in freezer
Год выпуска: 2018
Страна: Италия
Студия: Indigo Film, Rai Cinema
Жанр: Комедия
Продолжительность: 01:39:21
Перевод: Профессиональный многоголосый | iTunes
Субтитры: Русские (Forced, full), французские

Режиссер: Джанкарло Фонтана, Джузеппе Стази

rating

В ролях: Фабио Де Луиджи, Мириам Леоне, Люсия Оконе, Марина Рокко, Франческо Ди Лива, Сьюзи Лауде, Карло Лука Де Руджиери, Маурицио Ломбарди, Эрос Паньи, Барбара Буше

Описание: Молодая художница Клаудия держит на плаву свою мастерскую только благодаря бабушкиной пенсии. И когда старушка умирает, Клаудии ничего не остается, как скрыть этот факт, чтобы продолжать получать деньги. Но девушку начинает преследовать дотошный и неподкупный полицейский Симоне, обожающий свою работу. Что же привлекло его внимание — сама Клаудия или ее «скелет в шкафу»?

Качество: WEB-DL 1080p
Формат: MKV

Видео: MPEG-4 AVC, 1920x804, 4521 Кbit/s, 25.000 fps
Аудио #01: 48 kHz, AC3, 5.1, 384 Kbps | iTunes | RUS |
Аудио #02: 48 kHz, AC3, 5.1, 384 Kbps | Оригинал | ITA |
скриншот  скриншот  скриншот  скриншот  скриншот  

General
Unique ID : 151214995340823797865884522082611945653 (0x71C2F2E1B889DAE017E68D4BFA16E0B5)
Complete name : D:Put.Grandma.in.the.Freezer.2018.WEB-DL.1080p.seleZen.mkv
Format : Matroska
Format version : Version 4
File size : 3.67 GiB
Duration : 1 h 39 min
Overall bit rate : 5 291 kb/s
Movie name : Put Grandma in the Freezer 2018 from селезень
Encoded date : UTC 2020-02-09 22:42:52
Writing application : mkvmerge v41.0.0 ('Smarra') 64-bit
Writing library : libebml v1.3.9 + libmatroska v1.5.2

Video
ID : 1
Format : AVC
Format/Info : Advanced Video Codec
Format profile : High@L4
Format settings : CABAC / 5 Ref Frames
Format settings, CABAC : Yes
Format settings, Reference : 5 frames
Codec ID : V_MPEG4/ISO/AVC
Duration : 1 h 39 min
Bit rate : 4 521 kb/s
Width : 1 920 pixels
Height : 804 pixels
Display aspect ratio : 2.40:1
Frame rate mode : Constant
Frame rate : 25.000 FPS
Color space : YUV
Chroma subsampling : 4:2:0
Bit depth : 8 bits
Scan type : Progressive
Bits/(Pixel*Frame) : 0.117
Stream size : 3.14 GiB (85%)
Language : Italian
Default : Yes
Forced : No
Color range : Limited
Color primaries : BT.709
Transfer characteristics : BT.709
Matrix coefficients : BT.709

Audio #1
ID : 2
Format : AC-3
Format/Info : Audio Coding 3
Commercial name : Dolby Digital
Codec ID : A_AC3
Duration : 1 h 39 min
Bit rate mode : Constant
Bit rate : 384 kb/s
Channel(s) : 6 channels
Channel layout : L R C LFE Ls Rs
Sampling rate : 48.0 kHz
Frame rate : 31.250 FPS (1536 SPF)
Compression mode : Lossy
Stream size : 273 MiB (7%)
Title : iTunes
Language : Russian
Service kind : Complete Main
Default : Yes
Forced : Yes

Audio #2
ID : 3
Format : AC-3
Format/Info : Audio Coding 3
Commercial name : Dolby Digital
Codec ID : A_AC3
Duration : 1 h 39 min
Bit rate mode : Constant
Bit rate : 384 kb/s
Channel(s) : 6 channels
Channel layout : L R C LFE Ls Rs
Sampling rate : 48.0 kHz
Frame rate : 31.250 FPS (1536 SPF)
Compression mode : Lossy
Stream size : 273 MiB (7%)
Title : Original
Language : Italian
Service kind : Complete Main
Default : No
Forced : No

Text #1
ID : 4
Format : UTF-8
Codec ID : S_TEXT/UTF8
Codec ID/Info : UTF-8 Plain Text
Duration : 1 h 1 min
Bit rate : 0 b/s
Count of elements : 4
Stream size : 165 Bytes (0%)
Title : Forced
Language : Russian
Default : Yes
Forced : Yes

Text #2
ID : 5
Format : UTF-8
Codec ID : S_TEXT/UTF8
Codec ID/Info : UTF-8 Plain Text
Duration : 1 h 35 min
Bit rate : 101 b/s
Count of elements : 1536
Stream size : 71.1 KiB (0%)
Title : Full
Language : Russian
Default : No
Forced : No

Text #3
ID : 6
Format : UTF-8
Codec ID : S_TEXT/UTF8
Codec ID/Info : UTF-8 Plain Text
Duration : 1 h 33 min
Bit rate : 80 b/s
Count of elements : 1408
Stream size : 55.5 KiB (0%)
Title : Full
Language : French
Default : No
Forced : No

Menu
00:00:00.000 : en:Глава 1
00:09:26.320 : en:Глава 2
00:17:01.320 : en:Глава 3
00:25:26.360 : en:Глава 4
00:32:55.480 : en:Глава 5
00:40:01.960 : en:Глава 6
00:47:14.520 : en:Глава 7
00:54:10.040 : en:Глава 8
01:00:25.560 : en:Глава 9
01:07:19.080 : en:Глава 10
01:14:09.160 : en:Глава 11
01:21:26.000 : en:Глава 12
01:28:35.840 : en:Глава 13

pb.wtf



Скачать Спрячь бабушку в холодильнике через торрент https://img16.lostpic.net/2020/02/10/a33abdacd690ef967aaae9e67c72fba4.jpg Скачать фильм Спрячь бабушку в холодильнике через торрент бесплантно в хорошем качестве Описание: Молодая художница Клаудия держит на плаву свою мастерскую только благодаря бабушкиной пенсии. И когда старушка умирает, Клаудии ... 9 10 9
Торрент: Зарегистрирован [2020-02-10 02:48] · скачан: 177 раз
Статус: √ проверено
Размер: 3.67 GB
Как cкачать? Как скачать Спрячь бабушку в холодильнике через торрент | qTorrent

% Раздел Тема Автор DL S | L
Фильмы 2018 [DVDrip, WEB-DLRip, HDrip] (DUB, MVO) [ 1.46 GB ] Спрячь бабушку в холодильнике / Metti la nonna in freezer [2018 HDRip] MVO bober100 Скачать
6 | 0
Фильмы 2018 [DVDrip, WEB-DLRip, HDrip] (DUB, MVO) [ 2.18 GB ] Спрячь бабушку в холодильнике / Metti la nonna in freezer [2018 HDRip] MVO bober100 Скачать
2 | 0
# Фильмы [HD 720p, 1080p] (Хороший звук DUB, MVO) [ 6.82 GB ] Спрячь бабушку в холодильнике / Metti la nonna in freezer [2018 BDRip 1080p] MVO bober100 Скачать
1 | 0

28-11-2019 20:33  

Отключить всю рекламу на сайте

11-03-2020 22:24 Спрячь бабушку в холодильнике Скачать торрент  

нормальная легкая комедия на вечер 7 из 10 pb.wtf



    Дорогой пользователь! Огромная просьба, поблагодарите релизера, оцените раздачу и оставьте свои комментарий, если Вы скачали Спрячь бабушку в холодильнике через торрент бесплатно! Внесите свою лепту в развитие PiratBit!
    Комментировать посты могут только пользователи прошедшие не сложную регистрацию
    Показать сообщения:    

    Спрячь бабушку в холодильнике через торрент
    Скачать бесплатно Спрячь бабушку в холодильнике
    Спрячь бабушку в холодильнике скачать торрент
    Спрячь бабушку в холодильнике смотреть онлайн
    Cкачать фильм Спрячь бабушку в холодильнике бесплатно
    Спрячь бабушку в холодильнике скачать торрент в хорошем качестве
    Спрячь бабушку в холодильнике смотреть онлайн бесплатно в хорошем качестве


    Вы не можете начинать темы
    Вы не можете отвечать на сообщения
    Вы не можете редактировать свои сообщения
    Вы не можете удалять свои сообщения
    Вы не можете голосовать в опросах
    Вы не можете прикреплять файлы к сообщениям
    Вы можете скачивать файлы