Ссылка на приватное зеркало нашего сайта всего за 1$. Внимание количество ограничено!!!

2 сезон

iTunes

1 сезон

1

2 сезон

2 сезон

iTunes

1 сезон

RePack

30

Новинка

ВАЖНО

ИГРА 18+

pack

RePack

MK11
pack

Забери бонус

RePack

jed

!!Акция!!

Alien_Rage

RePack

fifa19

RePack

Assassins Creed: Odyssey

RePack

NEED FOR SPEED™ PAYBACK

4 сезон

9 сезон

Бесстыжие 9 сезон

Все сериалы

все сериалы на PB.wtf

RePack

FAR CRY 5
  

Безумцы / Бесстрашные / Делилер / Deliler (Осман Кая) [2018, История, военный, WEB-DL 720p] MVO [iTunes] pb.wtf

Безумцы через торрент pb.wtf

Раздают: 1 [ 0 KB/s ]
Размер: 3.69 GB | Добавлен: 9 мес. назад | Торрент скачан:115 раз
Скачать  

10-02-2020 06:52 Безумцы Скачать торрент  

Безумцы | Бесстрашные | Делилер | Deliler
Год выпуска: 2018
Страна: Турция
Жанр: История, военный
Продолжительность: 02:00:34
Перевод: Профессиональный многоголосый | iTunes
Субтитры: отсутствуют

Режиссер: Осман Кая

rating

В ролях: Джем Учан, Эркан Петеккая, Нур Феттахоглу, Йеткин Дикинджилер, Гюльшах Шахин, Исмаил Филиз, Берат Эфэ Парлар, Камиль Гюлер

Описание: Действия фильма разворачиваются в середине 15 века. Султан Фатих Мехмет направляет Влада Цепеша в Валахию, хотя вначале он оставался верен Османской Империи, затем проявляется его жестокость. Узнав об этом Султан Мехмет не желает умалчивать, он не намерен терпеть издевательства над людьми, какой бы нации или веры они ни были. Он отправляет к Владу своего посланника с предупреждением. Влад возвращает посла воткнув кол в голову. Рассвирепев Султан Фатих Мехмет создает "Союз безумцев", в который входят семь бесстрашных и доблестных героев, вместе с Куманом, который является ушами и глазами всего происходящего. Семь бесстрашных и доблестных героев; Гёккурт, Ашкар, Чеби, Сускун, Конгар и Адсыз. Вместо того, чтобы скрываться от войска Влада и самого Влада, эти семь безумцев пытаются отомстить тысячам обидчикам одним за другим. В конце этого пути находится Влад Тепеш и его армия.

Качество: WEB-DL 720p
Формат: MKV

Видео: MPEG-4 AVC, 4000 Кбит/с, 1280x536
Аудио: Русский (AC3, 6 ch, 384 Кбит/с)
скриншот  скриншот  скриншот  скриншот  

Общее
Уникальный идентификатор : 337660379587817043266223880951734038959 (0xFE07060B2EC2581E51B2CB1DF3DD71AF)
Полное имя : C:\Deliler.2018.720p.WEB-DL.Rus.TeamHD.mkv
Формат : Matroska
Версия формата : Version 4 / Version 2
Размер файла : 3,69 Гбайт
Продолжительность : 2 ч. 0 м.
Общий поток : 4386 Кбит/сек
Дата кодирования : UTC 2020-02-09 19:32:34
Программа кодирования : mkvmerge v8.5.1 ('Where you lead I will follow') 64bit
Библиотека кодирования : libebml v1.3.3 + libmatroska v1.4.4

Видео
Идентификатор : 1
Формат : AVC
Формат/Информация : Advanced Video Codec
Профиль формата : Main@L3.1
Параметр CABAC формата : Нет
Параметр RefFrames формата : 2 кадра
Идентификатор кодека : V_MPEG4/ISO/AVC
Продолжительность : 2 ч. 0 м.
Битрейт : 4000 Кбит/сек
Ширина : 1280 пикселей
Высота : 536 пикселей
Соотношение сторон : 2,40:1
Режим частоты кадров : Постоянный
Частота кадров : 24,000 кадра/сек
Цветовое пространство : YUV
Субдискретизация насыщенности : 4:2:0
Битовая глубина : 8 бит
Тип развёртки : Прогрессивная
Бит/(Пиксели*Кадры) : 0.243
Размер потока : 3,37 Гбайт (91%)
Заголовок : Main Program
Язык : Turkish
Default : Да
Forced : Нет
Цветовой диапазон : Limited
Основные цвета : BT.709
Характеристики трансфера : BT.709
Коэффициенты матрицы : BT.709

Аудио
Идентификатор : 2
Формат : AC-3
Формат/Информация : Audio Coding 3
Расширение режима : CM (complete main)
Параметр Endianness формата : Big
Идентификатор кодека : A_AC3
Продолжительность : 2 ч. 0 м.
Вид битрейта : Постоянный
Битрейт : 384 Кбит/сек
Каналы : 6 каналов
Расположение каналов : Front: L C R, Side: L R, LFE
Частота : 48,0 КГц
Частота кадров : 31,250 кадров/сек (1536 spf)
Метод сжатия : С потерями
Размер потока : 331 Мбайт (9%)
Заголовок : Russian MVO from iTunes Russian DD 5.1
Язык : Russian
Default : Да
Forced : Нет

Меню
00:00:00.000 : en:Глава 1
00:06:20.666 : en:Глава 2
00:14:45.874 : en:Глава 3
00:24:41.040 : en:Глава 4
00:32:04.998 : en:Глава 5
00:40:28.623 : en:Глава 6
00:48:45.206 : en:Глава 7
00:57:01.206 : en:Глава 8
01:03:50.622 : en:Глава 9
01:10:21.788 : en:Глава 10
01:18:58.746 : en:Глава 11
01:25:46.912 : en:Глава 12
01:32:38.412 : en:Глава 13
01:40:04.120 : en:Глава 14
01:47:24.286 : en:Глава 15

pb.wtf



Скачать Безумцы через торрент https://b.radikal.ru/b09/2002/6e/8e0fb8b4d395.png Скачать фильм Безумцы через торрент бесплантно в хорошем качестве Описание: Действия фильма разворачиваются в середине 15 века. Султан Фатих Мехмет направляет Влада Цепеша в Валахию, хотя вначале он ... 10 10 3
Торрент: Зарегистрирован [2020-02-10 06:52] · скачан: 115 раз
Статус: √ проверено
Размер: 3.69 GB
Как cкачать? Как скачать Безумцы через торрент | qTorrent

% Раздел Тема Автор DL S | L
Фильмы 2018 [DVDrip, WEB-DLRip, HDrip] (DUB, MVO) [ 2.13 GB ] Безумцы / Бесстрашные / Делилер / Deliler [2018 История военный BDRip] MVO Twi7ter Скачать
4 | 0
Фильмы 2018 [DVDrip, WEB-DLRip, HDrip] (DUB, MVO) [ 1.46 GB ] Безумцы / Бесстрашные / Делилер / Deliler [2018 История военный BDRip] MVO Twi7ter Скачать
26 | 1
Фильмы 2018 [DVDrip, WEB-DLRip, HDrip] (DUB, MVO) [ 2.83 GB ] Безумцы / Бесстрашные / Делилер / Deliler [2018 История военный BDRip-AVC] MVO bober100 Скачать
2 | 0
Фильмы 2018 [DVDrip, WEB-DLRip, HDrip] (DUB, MVO) [ 1.46 GB ] Безумцы / Бесстрашные / Делилер / Deliler [2018 История военный BDRip] MVO bober100 Скачать
2 | 0
Фильмы (WEB-DL 720p, 1080p) [ 4.11 GB ] Безумцы / Бесстрашные / Делилер / Deliler [2018 История военный WEB-DL 1080p] MVO bober100 Скачать
6 | 0


Последний раз редактировалось: bober100 (2020-02-10 19:54), всего редактировалось 1 раз

28-11-2019 20:33  

Отключить всю рекламу на сайте

10-02-2020 11:58 Безумцы Скачать торрент  

Бредpb.wtf



10-02-2020 17:07 Безумцы Скачать торрент  

еле переварил описаниеpb.wtf



    Дорогой пользователь! Огромная просьба, поблагодарите релизера, оцените раздачу и оставьте свои комментарий, если Вы скачали Безумцы через торрент бесплатно! Внесите свою лепту в развитие PiratBit!
    Комментировать посты могут только пользователи прошедшие не сложную регистрацию
    Показать сообщения:    

    Безумцы через торрент
    Скачать бесплатно Безумцы
    Безумцы скачать торрент
    Безумцы смотреть онлайн
    Cкачать фильм Безумцы бесплатно
    Безумцы скачать торрент в хорошем качестве
    Безумцы смотреть онлайн бесплатно в хорошем качестве


    Вы не можете начинать темы
    Вы не можете отвечать на сообщения
    Вы не можете редактировать свои сообщения
    Вы не можете удалять свои сообщения
    Вы не можете голосовать в опросах
    Вы не можете прикреплять файлы к сообщениям
    Вы можете скачивать файлы