Anonymous, добрый день, присоединяйтесь к нам в Telegram!, здесь всегда актуальный адрес сайта, оперативная поддержка и многое другое!

>

5.5

iTunes

7.4

iTunes

7.9

iTunes

1

7.7

1 сезон

6.8

iTunes

7.3

1 сезон

13

6.7

1 сезон

8.3

RePack

30

ULTIMATE

pack

9.9

Лицензия

ВАЖНО

ИГРА 18+

pack

7.3

RePack

MK11

7.7

RePack

jed

7.8

RePack

fifa19

8.5

RePack

RDR2

RePack

NEED FOR SPEED™ PAYBACK

4 сезон

9 сезон

Бесстыжие 9 сезон

Все сериалы

все сериалы на PB.wtf

RePack

FAR CRY 5

Anonymous, добрый день, мы катастрофически не успеваем собрать деньги на оплату серверов, помогите нам пожалуйста 5,10,15р., для нас важна любая помощь . В качестве благодарности мы отключим Вам всю рекламу на сайте (укажите свой ник в строку Ваше имя)!

×
  
Magnet ссылка

Родина / Чужой среди своих / Homeland / Сезон: 8 / Серии: 1-12 из 12 (Лесли Линка Глаттер, Майкл Куэста, Дэниэл Эттиэс) [2020, Триллер, драма, криминал, детектив, WEB-DLRip] MVO [SDI Media / Амедиа] pb.wtf

Родина через торрент pb.wtf

Размер: 7.82 GB | Добавлен: 1 год 5 мес. назад | Торрент скачан:24 раза
Смотреть онлайн Родина | Скачать    Ребята, помогите собрать деньги на оплату серверов!!!

10-02-2020 07:08 Родина Скачать торрент  

Родина | Чужой среди своих | Homeland
Год выпуска: 2020
Страна: США
Жанр: Триллер, драма, криминал, детектив
Продолжительность: ~ 01:00:00
Перевод: Профессиональный многоголосый | SDI Media по заказу Amedia
Субтитры: Русские, английские

Режиссер: Лесли Линка Глаттер, Майкл Куэста, Дэниэл Эттиэс

rating


В ролях: Клер Дэйнс, Руперт Френд, Элизабет Марвел, Ф. Мюррэй Абрахам, Мэнди Пэтинкин, Хилл Харпер, Мори Стерлинг, Эшли Шарп Честнат, Доминик Фумуса, Патрик Сабонги, Зайнаб Джа, Альфредо Нарцисо, Джамал Маллори-МакКри, Бернард Уайт, Аллан Кордунер, Нина Хосс, Джейк Уэбер, Дебора Хедуолл

Описание: С восьмым сезоном возвращается культовый сериал "Родина". Противостояние между главным террористом Америки и агентом ЦРУ уже закончилось. Блондинка выиграла эту войну. Броуди теперь мертв, а Соул уволен из ЦРУ. Кэрри Мэттисон продолжает деятельность, надеясь, что справится с многочисленными очагами возгорания террористической активности. Она - уверенная в себе девушка, которая знает, как работать с подобными делами. Главная героиня долгое время отдавала честь родине и стремилась защитить её границы. Теперь её ожидают новые испытания. Сериал "Родина" возвращается с восьмым сезоном на экраны.

Качество: WEB-DLRip
Формат: AVI

Видео: 720x400 at 23.976 fps, XviD, ~1500 kbps avg
Аудио#1 Russian: 48 kHz, MP3, 2/0 (L,R) ch, ~128 kbps avg |Многоголосый закадровый, SDI Media по заказу Amedia|
Аудио#2 English: 48 kHz, MP3, 2/0 (L,R) ch, ~128 kbps avg
скриншот  скриншот  скриншот  скриншот  скриншот  

Общее
Полное имя : C:\Родина (сезон 8) Homeland (2020) WEB-DLRip - Amedia\Homeland.S08E01.WEB-DLRip.Rus.Eng.DV.Amedia.avi
Формат : AVI
Формат/Информация : Audio Video Interleave
Размер файла : 749 Мбайт
Продолжительность : 59 м. 22 с.
Общий поток : 1763 Кбит/сек
Название фильма : Homeland.S08E01.WEB-DLRip.Rus.Eng.DV.Amedia / NNM-Club
Программа кодирования : VirtualDubModRus 1.5.10.2 (build 2542/release)
Библиотека кодирования : VirtualDubMod build 2542/release

Видео
Идентификатор : 0
Формат : MPEG-4 Visual
Профиль формата : Advanced Simple@L5
Настройки формата : BVOP2
Параметр BVOP формата : 2
Параметр QPel формата : Нет
Параметр GMC формата : Без точки перехода
Параметр матрицы формата : Default (H.263)
Идентификатор кодека : XVID
Идентификатор кодека/Подсказка : XviD
Продолжительность : 59 м. 22 с.
Битрейт : 1493 Кбит/сек
Ширина : 720 пикселей
Высота : 400 пикселей
Соотношение сторон : 16:9
Частота кадров : 23,976 (24000/1001) кадра/сек
Цветовое пространство : YUV
Субдискретизация насыщенности : 4:2:0
Битовая глубина : 8 бит
Тип развёртки : Прогрессивная
Метод сжатия : С потерями
Бит/(Пиксели*Кадры) : 0.216
Размер потока : 634 Мбайт (85%)
Заголовок : Rip from DriverV for NNM-Club
Библиотека кодирования : XviD 64

Аудио #1
Идентификатор : 1
Формат : MPEG Audio
Версия формата : Version 1
Профиль формата : Layer 3
Настройки формата : Joint stereo / MS Stereo
Идентификатор кодека : 55
Идентификатор кодека/Подсказка : MP3
Продолжительность : 59 м. 22 с.
Вид битрейта : Постоянный
Битрейт : 128 Кбит/сек
Каналы : 2 канала
Частота : 48,0 КГц
Метод сжатия : С потерями
Размер потока : 54,4 Мбайт (7%)
Выравнивание : Соединение по промежуткам
Продолжительность промежутка : 42 мс. (1,00 видеокадр)
Время предзагрузки промежутка : 504 мс.

Аудио #2
Идентификатор : 2
Формат : MPEG Audio
Версия формата : Version 1
Профиль формата : Layer 3
Настройки формата : Joint stereo / MS Stereo
Идентификатор кодека : 55
Идентификатор кодека/Подсказка : MP3
Продолжительность : 59 м. 22 с.
Вид битрейта : Постоянный
Битрейт : 128 Кбит/сек
Каналы : 2 канала
Частота : 48,0 КГц
Метод сжатия : С потерями
Размер потока : 54,4 Мбайт (7%)
Выравнивание : Соединение по промежуткам
Продолжительность промежутка : 42 мс. (1,00 видеокадр)
Время предзагрузки промежутка : 504 мс.

Когда раздача ведётся путём добавления новых серий, при каждом добавлении создётся новый торрент. Чтобы начать докачку новой серии, пользователям необходимо сделать следующее:
(1) остановить скачивание,
(2) удалить старый торрент у себя из клиента (старые серии удалять не надо),
(3) скачать новый торрент и запустить его у себя в клиенте вместо старого, при этом указать клиенту путь в старую папку, куда и должно происходить скачивание новых серий.
Ваш клиент при этом должен произвести хеширование (проверку) старой папки (если не производит сам - помогите ему сделать это), и будет докачивать только те серии, которых у вас ещё нет. Старые серии при этом не удаляются, а продолжают раздаваться!
Eсли вы уже удалили старые серии, то предотвратить повторную закачку старых серий можно, отжав галочку в соответсвующих местах при запуске нового торрента. По возможности, желательно не удалять старые серии как можно дольше, чтобы релизёр не столько продолжал раздавать старые серии, а смог сконцентрироваться на новых.
pb.wtf



Скачать Родина через торрент https://a.radikal.ru/a39/2002/de/8455823cfda5.jpg Скачать, смотреть онлайн Родина бесплантно в хорошем качестве Описание: С восьмым сезоном возвращается культовый сериал "Родина". Противостояние между главным террористом Америки и агентом ЦРУ уже ... 10 10 5
Торрент: Зарегистрирован [2020-04-27 08:14] · скачан: 24 раз
Статус: √ проверено
Размер: 7.82 GB
Как cкачать? Как скачать Родина через торрент | UTorrent

% Раздел Тема Автор DL S | L
Родина / Чужой среди своих / Homeland [ 7.82 GB ] Родина / Чужой среди своих / Homeland / Сезон: 8 / Серии: 1-12 из 12 [2020 WEB-DLRip] MVO [LostFilm] bober100 Скачать
1 | 0
Родина / Чужой среди своих / Homeland [ 44.9 GB ] Родина / Чужой среди своих / Homeland / Сезон: 8 / Серии: 1-12 из 12 [2020 WEB-DL 1080p] MVO [SDI Media / Амедиа] bober100 Скачать
1 | 0
Родина / Чужой среди своих / Homeland [ 10.94 GB ] Родина / Чужой среди своих / Homeland / Сезон: 8 / Серии: 1-3 из 12 [2020 WEB-DL 1080p] MVO [TVShows] bober100 Скачать
1 | 0
Родина / Чужой среди своих / Homeland [ 5.52 GB ] Родина / Чужой среди своих / Homeland / Сезон: 8 / Серии: 1-3 из 12 [2020 WEB-DL 720p] MVO [TVShows] bober100 Скачать
1 | 0


Последний раз редактировалось: bober100 (2020-04-07 02:35), всего редактировалось 1 раз

28-11-2019 20:33  

Отключить всю рекламу на сайте

    Дорогой пользователь! Огромная просьба, поблагодарите релизера, оцените раздачу и оставьте свои комментарий, если Вы скачали Родина через торрент бесплатно!
    Комментировать посты могут только пользователи прошедшие не сложную регистрацию
    Показать сообщения:    

    Родина через торрент
    Скачать бесплатно Родина
    Родина скачать торрент
    Родина смотреть онлайн
    Cкачать фильм Родина бесплатно
    Родина скачать торрент в хорошем качестве
    Родина смотреть онлайн бесплатно в хорошем качестве


    Вы не можете начинать темы
    Вы не можете отвечать на сообщения
    Вы не можете редактировать свои сообщения
    Вы не можете удалять свои сообщения
    Вы не можете голосовать в опросах
    Вы не можете прикреплять файлы к сообщениям
    Вы можете скачивать файлы