Всегда рабочее зеркало без VPN и Proxy просто перед .vidak.icu напиши любое слово или цифру, Пример http://qvz7.vidak.icu

MVO

2 сезон

2 сезон

1

1 сезон

iTunes

2 сезон

13

1 сезон

Deluxe

pack

Рекомендуем

Пиратка

30

ВАЖНО

RePack

MK11

RePack

jed

RePack

fifa19

RePack

RDR2

RePack

NEED FOR SPEED™ PAYBACK

Кинопоиск HD

6 сезон

 Острые козырьки 6 сезон

Все сериалы

все сериалы на PB.wtf

RePack

FAR CRY 5

Anonymous, нам критически не хватает 5601 руб. на оплату серверов и переферии за Апрель, помоги нам пожалуйста, вся надежда только на тебя. В благодарность мы отключим тебе всю рекламу на сайте!

×
  
Magnet ссылка

92-я церемония вручения премии "Оскар" (+ Красная Дорожка) / The 92nd Annual Academy Awards (+ Red Carpet) (Гленн Уайсс) [ТВ-Шоу, HDTV 720p, 1080p] [ENG] pb.wtf

92-я церемония вручения премии "Оскар" через торрент pb.wtf

Размер: 29.86 GB | Добавлен: 2 года 3 мес. назад | Торрент скачан:4 раза
Смотреть онлайн 92-я церемония вручения премии "Оскар" | Скачать    Ребята, помогите собрать деньги на оплату серверов!!!

10-02-2020 08:56 92-я церемония вручения премии "Оскар" Скачать торрент  

92-я церемония вручения премии "Оскар" (+ Красная Дорожка) / The 92nd Annual Academy Awards (+ Red Carpet)

Год выпуска: 2020
Страна: США
Жанр: ТВ-Шоу
Продолжительность: 01:02:00 (Red Carpet ABC) + 02:04:55 (Red Carpet E!) + 02:51:56 (Awards)
Перевод: Отсутствует! [английский оригинал]
Русские субтитры: нет

Автор рипа/записи: ilya2129

Оригинальная аудиодорожка: английский
Режиссер: Гленн Уайсс

Телеканал: ABC 7 HD New York / E! HD
Описание: 92-я церемония вручения наград премии «Оскар» за заслуги в области кинематографа за 2019 год. Номинанты в 24 номинациях представлены Академией кинематографических искусств и наук (AMPAS) (актёрами Джоном Чо и Иссай Рэй) 13 января 2020 года. Церемония награждения состоялась 9 февраля 2020 года в театре «Долби» в Голливуде (Лос-Анджелес, штат Калифорния). После успеха прошлого года церемония вновь прошла без ведущего — в третий раз в истории (ранее — в 1989 и 2019 годах).

качество: HDTV
формат: TS/M2TS

Тех. данные
Видео: MPEG2, 1280x720p, 16:9, ~11100kbps, 59,94fps
Аудио: AC3, 384kbps, 48000kHz, 6ch
Общее
Идентификатор : 1 (0x1)
Полное имя : G:\Oscars 2020\Oscars 2020 - Red Carpet (ABC).ts
Формат : MPEG-TS
Размер файла : 5,32 Гбайт
Продолжительность : 1 ч. 2 м.
Режим общего битрейта : Переменный
Общий поток : 12,2 Мбит/сек
Название фильма : OSCARS RED CARPET SHOW
Ограничение по возрасту : TV-PG (L)

Видео
Идентификатор : 101 (0x65)
Идентификатор меню : 1 (0x1)
Формат : MPEG Video
Версия формата : Version 2
Профиль формата : Main@High
Настройки формата : CustomMatrix / BVOP
Параметр BVOP формата : Да
Параметр матрицы формата : Выборочная
Параметр GOP формата : Variable
Идентификатор кодека : 2
Продолжительность : 1 ч. 2 м.
Вид битрейта : Переменный
Битрейт : 11,1 Мбит/сек
Максимальный битрейт : 24,0 Мбит/сек
Ширина : 1280 пикселей
Высота : 720 пикселей
Соотношение сторон : 16:9
Описание активного формата : Letterbox 16:9 image
Частота кадров : 59,940 (60000/1001) кадров/сек
Цветовое пространство : YUV
Субдискретизация насыщенности : 4:2:0
Битовая глубина : 8 бит
Тип развёртки : Прогрессивная
Метод сжатия : С потерями
Бит/(Пиксели*Кадры) : 0.201
Временной код первого кадра : 00:00:00;00
Оригинал временного кода : Group of pictures header
GOP, открыто/закрыто : Открыто
GOP, открыто/закрыто на первом кадре : Закрыто
Размер потока : 4,85 Гбайт (91%)

Аудио #1
Идентификатор : 7572 (0x1D94)
Идентификатор меню : 1 (0x1)
Формат : AC-3
Формат/Информация : Audio Coding 3
Коммерческое название : Dolby Digital
Идентификатор кодека : 129
Продолжительность : 1 ч. 2 м.
Вид битрейта : Постоянный
Битрейт : 384 Кбит/сек
Каналы : 6 каналов
ChannelLayout : L R C LFE Ls Rs
Частота : 48,0 КГц
Частота кадров : 31,250 кадров/сек (1536 SPF)
Метод сжатия : С потерями
Задержка видео : -1 мс.
Размер потока : 172 Мбайт (3%)
Язык : English
ServiceKind/String : Complete Main

Аудио #2
Идентификатор : 7573 (0x1D95)
Идентификатор меню : 1 (0x1)
Формат : AC-3
Формат/Информация : Audio Coding 3
Коммерческое название : Dolby Digital
Идентификатор кодека : 129
Продолжительность : 1 ч. 2 м.
Вид битрейта : Постоянный
Битрейт : 96,0 Кбит/сек
Каналы : 2 канала
ChannelLayout : L R
Частота : 48,0 КГц
Частота кадров : 31,250 кадров/сек (1536 SPF)
Метод сжатия : С потерями
Задержка видео : 2 мс.
Размер потока : 42,9 Мбайт (1%)
Язык : Spanish
ServiceKind/String : Complete Main

Текст #1
Идентификатор : 101 (0x65)-CC1
Идентификатор меню : 1 (0x1)
Формат : EIA-608
Режим смешивания : A/53 / DTVCC Transport
Режим смешивания, доп. информация : Muxed in Video #1
Продолжительность : 1 ч. 2 м.
Вид битрейта : Постоянный
Размер потока : 0,00 байт (0%)
CaptionServiceName : CC1

Текст #2
Идентификатор : 101 (0x65)-1
Идентификатор меню : 1 (0x1)
Формат : EIA-708
Режим смешивания : A/53 / DTVCC Transport
Режим смешивания, доп. информация : Muxed in Video #1
Продолжительность : 1 ч. 2 м.
Вид битрейта : Постоянный
Размер потока : 0,00 байт (0%)

Текст #3
Идентификатор : 101 (0x65)-5
Идентификатор меню : 1 (0x1)
Формат : EIA-708
Режим смешивания : A/53 / DTVCC Transport
Режим смешивания, доп. информация : Muxed in Video #1
Продолжительность : 1 ч. 2 м.
Вид битрейта : Постоянный
Размер потока : 0,00 байт (0%)

Текст #4
Идентификатор : 101 (0x65)-6
Идентификатор меню : 1 (0x1)
Формат : EIA-708
Режим смешивания : A/53 / DTVCC Transport
Режим смешивания, доп. информация : Muxed in Video #1
Продолжительность : 1 ч. 2 м.
Вид битрейта : Постоянный
Размер потока : 0,00 байт (0%)
Видео: MPEG2, 1920x1080i, 16:9, ~12400kbps, 29.97fps
Аудио: AC3, 384kbps, 48000kHz, 6ch
Общее
Идентификатор : 1 (0x1)
Полное имя : G:\Oscars 2020\Oscars 2020 - Red Carpet (E!).ts
Формат : MPEG-TS
Размер файла : 11,8 Гбайт
Продолжительность : 2 ч. 4 м.
Режим общего битрейта : Переменный
Общий поток : 13,6 Мбит/сек
Ограничение по возрасту : TV-PG

Видео
Идентификатор : 101 (0x65)
Идентификатор меню : 1 (0x1)
Формат : MPEG Video
Версия формата : Version 2
Профиль формата : Main@High
Настройки формата : BVOP
Параметр BVOP формата : Да
Параметр матрицы формата : По умолчанию
Параметр GOP формата : Variable
Структура изображения : Frame
Идентификатор кодека : 2
Продолжительность : 2 ч. 4 м.
Вид битрейта : Переменный
Битрейт : 12,4 Мбит/сек
Максимальный битрейт : 64,0 Мбит/сек
Ширина : 1920 пикселей
Высота : 1080 пикселей
Соотношение сторон : 16:9
Описание активного формата : Full frame 16:9 image
Частота кадров : 29,970 (30000/1001) кадров/сек
Цветовое пространство : YUV
Субдискретизация насыщенности : 4:2:0
Битовая глубина : 8 бит
Тип развёртки : Чересстрочная
Порядок развёртки : Верхнее поле первое
Метод сжатия : С потерями
Бит/(Пиксели*Кадры) : 0.199
Временной код первого кадра : 00:00:26;14
Оригинал временного кода : Group of pictures header
Размер потока : 10,7 Гбайт (91%)

Аудио #1
Идентификатор : 7552 (0x1D80)
Идентификатор меню : 1 (0x1)
Формат : AC-3
Формат/Информация : Audio Coding 3
Коммерческое название : Dolby Digital
Идентификатор кодека : 129
Продолжительность : 2 ч. 4 м.
Вид битрейта : Постоянный
Битрейт : 384 Кбит/сек
Каналы : 6 каналов
ChannelLayout : L R C LFE Ls Rs
Частота : 48,0 КГц
Частота кадров : 31,250 кадров/сек (1536 SPF)
Метод сжатия : С потерями
Задержка видео : 14 мс.
Размер потока : 341 Мбайт (3%)
Язык : English
ServiceKind/String : Complete Main

Аудио #2
Идентификатор : 7553 (0x1D81)
Идентификатор меню : 1 (0x1)
Формат : AC-3
Формат/Информация : Audio Coding 3
Коммерческое название : Dolby Digital
Идентификатор кодека : 129
Продолжительность : 2 ч. 4 м.
Вид битрейта : Постоянный
Битрейт : 192 Кбит/сек
Каналы : 2 канала
ChannelLayout : M M
Частота : 48,0 КГц
Частота кадров : 31,250 кадров/сек (1536 SPF)
Метод сжатия : С потерями
Задержка видео : 14 мс.
Размер потока : 171 Мбайт (1%)
Язык : English
ServiceKind/String : Complete Main

Текст #1
Идентификатор : 101 (0x65)-CC1
Идентификатор меню : 1 (0x1)
Формат : EIA-608
Режим смешивания : A/53 / DTVCC Transport
Режим смешивания, доп. информация : Muxed in Video #1
Продолжительность : 2 ч. 4 м.
Вид битрейта : Постоянный
Размер потока : 0,00 байт (0%)
CaptionServiceName : CC1

Текст #2
Идентификатор : 101 (0x65)-1
Идентификатор меню : 1 (0x1)
Формат : EIA-708
Режим смешивания : A/53 / DTVCC Transport
Режим смешивания, доп. информация : Muxed in Video #1
Продолжительность : 2 ч. 4 м.
Вид битрейта : Постоянный
Размер потока : 0,00 байт (0%)
Видео: MPEG2, 1280x720p, 16:9, ~9578kbps, 59,94fps
Аудио: AC3, 384kbps, 48000kHz, 6ch
Общее
Идентификатор : 1 (0x1)
Полное имя : G:\Oscars 2020\Oscars 2020.ts
Формат : MPEG-TS
Размер файла : 12,7 Гбайт
Продолжительность : 2 ч. 51 м.
Режим общего битрейта : Переменный
Общий поток : 10,6 Мбит/сек
Название фильма :
Ограничение по возрасту : TV-14 (DLV)

Видео
Идентификатор : 101 (0x65)
Идентификатор меню : 1 (0x1)
Формат : MPEG Video
Версия формата : Version 2
Профиль формата : Main@High
Настройки формата : CustomMatrix / BVOP
Параметр BVOP формата : Да
Параметр матрицы формата : Выборочная
Параметр GOP формата : Variable
Идентификатор кодека : 2
Продолжительность : 2 ч. 51 м.
Вид битрейта : Переменный
Битрейт : 9574 Кбит/сек
Максимальный битрейт : 24,0 Мбит/сек
Ширина : 1280 пикселей
Высота : 720 пикселей
Соотношение сторон : 16:9
Описание активного формата : Letterbox 16:9 image
Частота кадров : 59,940 (60000/1001) кадров/сек
Цветовое пространство : YUV
Субдискретизация насыщенности : 4:2:0
Битовая глубина : 8 бит
Тип развёртки : Прогрессивная
Метод сжатия : С потерями
Бит/(Пиксели*Кадры) : 0.173
Временной код первого кадра : 00:00:00;00
Оригинал временного кода : Group of pictures header
GOP, открыто/закрыто : Открыто
GOP, открыто/закрыто на первом кадре : Закрыто
Размер потока : 11,5 Гбайт (90%)

Аудио #1
Идентификатор : 7572 (0x1D94)
Идентификатор меню : 1 (0x1)
Формат : AC-3
Формат/Информация : Audio Coding 3
Коммерческое название : Dolby Digital
Идентификатор кодека : 129
Продолжительность : 2 ч. 51 м.
Вид битрейта : Постоянный
Битрейт : 384 Кбит/сек
Каналы : 6 каналов
ChannelLayout : L R C LFE Ls Rs
Частота : 48,0 КГц
Частота кадров : 31,250 кадров/сек (1536 SPF)
Метод сжатия : С потерями
Задержка видео : 20 мс.
Размер потока : 472 Мбайт (4%)
Язык : English
ServiceKind/String : Complete Main

Аудио #2
Идентификатор : 7573 (0x1D95)
Идентификатор меню : 1 (0x1)
Формат : AC-3
Формат/Информация : Audio Coding 3
Коммерческое название : Dolby Digital
Идентификатор кодека : 129
Продолжительность : 2 ч. 51 м.
Вид битрейта : Постоянный
Битрейт : 96,0 Кбит/сек
Каналы : 2 канала
ChannelLayout : L R
Частота : 48,0 КГц
Частота кадров : 31,250 кадров/сек (1536 SPF)
Метод сжатия : С потерями
Задержка видео : 22 мс.
Размер потока : 118 Мбайт (1%)
Язык : Spanish
ServiceKind/String : Complete Main

Текст #1
Идентификатор : 101 (0x65)-CC1
Идентификатор меню : 1 (0x1)
Формат : EIA-608
Режим смешивания : A/53 / DTVCC Transport
Режим смешивания, доп. информация : Muxed in Video #1
Продолжительность : 2 ч. 51 м.
Вид битрейта : Постоянный
Размер потока : 0,00 байт (0%)
CaptionServiceName : CC1

Текст #2
Идентификатор : 101 (0x65)-CC3
Идентификатор меню : 1 (0x1)
Формат : EIA-608
Режим смешивания : A/53 / DTVCC Transport
Режим смешивания, доп. информация : Muxed in Video #1
Продолжительность : 2 ч. 51 м.
Вид битрейта : Постоянный
Размер потока : 0,00 байт (0%)
CaptionServiceName : CC3

Текст #3
Идентификатор : 101 (0x65)-1
Идентификатор меню : 1 (0x1)
Формат : EIA-708
Режим смешивания : A/53 / DTVCC Transport
Режим смешивания, доп. информация : Muxed in Video #1
Продолжительность : 2 ч. 51 м.
Вид битрейта : Постоянный
Размер потока : 0,00 байт (0%)

Текст #4
Идентификатор : 101 (0x65)-5
Идентификатор меню : 1 (0x1)
Формат : EIA-708
Режим смешивания : A/53 / DTVCC Transport
Режим смешивания, доп. информация : Muxed in Video #1
Продолжительность : 2 ч. 51 м.
Вид битрейта : Постоянный
Размер потока : 0,00 байт (0%)

Текст #5
Идентификатор : 101 (0x65)-6
Идентификатор меню : 1 (0x1)
Формат : EIA-708
Режим смешивания : A/53 / DTVCC Transport
Режим смешивания, доп. информация : Muxed in Video #1
Продолжительность : 2 ч. 51 м.
Вид битрейта : Постоянный
Размер потока : 0,00 байт (0%)
pb.wtf



Скачать 92-я церемония вручения премии "Оскар" через торрент https://i111.fastpic.ru/big/2020/0210/5f/9b5d2dba120be52df71a08c0fec9485f.jpg Скачать, смотреть онлайн 92-я церемония вручения премии "Оскар" бесплантно в хорошем качестве Описание: 92-я церемония вручения наград премии «Оскар» за заслуги в области кинематографа за 2019 год. Номинанты в 24 номинациях ... 7.8 10 4
Торрент: Зарегистрирован [2020-02-10 08:56] · скачан: 4 раз
Статус: T временная
Размер: 29.86 GB
Как cкачать? Как скачать 92-я церемония вручения премии "Оскар" через торрент | UTorrent

28-11-2019 20:33  

Отключить всю рекламу на сайте

10-02-2020 12:45 92-я церемония вручения премии "Оскар" Скачать торрент  

фарсpb.wtf



    Дорогой пользователь! Огромная просьба, поблагодарите релизера, оцените раздачу и оставьте свои комментарий, если Вы скачали 92-я церемония вручения премии "Оскар" через торрент бесплатно!
    Комментировать посты могут только пользователи прошедшие не сложную регистрацию
    Показать сообщения:    

    92-я церемония вручения премии "Оскар" через торрент
    Скачать бесплатно 92-я церемония вручения премии "Оскар"
    92-я церемония вручения премии "Оскар" скачать торрент
    92-я церемония вручения премии "Оскар" смотреть онлайн
    Cкачать фильм 92-я церемония вручения премии "Оскар" бесплатно
    92-я церемония вручения премии "Оскар" скачать торрент в хорошем качестве
    92-я церемония вручения премии "Оскар" смотреть онлайн бесплатно в хорошем качестве


    Вы не можете начинать темы
    Вы не можете отвечать на сообщения
    Вы не можете редактировать свои сообщения
    Вы не можете удалять свои сообщения
    Вы не можете голосовать в опросах
    Вы не можете прикреплять файлы к сообщениям
    Вы можете скачивать файлы