Всегда рабочее зеркало без VPN и Proxy просто перед .vidak.icu напиши любое слово или цифру, Пример http://wfww.vidak.icu

MVO

2 сезон

1 сезон

1

1 сезон

iTunes

2 сезон

13

1 сезон

Deluxe

pack

Рекомендуем

Пиратка

30

ВАЖНО

RePack

MK11

RePack

jed

RePack

fifa19

RePack

RDR2

RePack

NEED FOR SPEED™ PAYBACK

Кинопоиск HD

6 сезон

 Острые козырьки 6 сезон

Все сериалы

все сериалы на PB.wtf

RePack

FAR CRY 5

Anonymous, нам критически не хватает 5601 руб. на оплату серверов и переферии за Апрель, помоги нам пожалуйста, вся надежда только на тебя. В благодарность мы отключим тебе всю рекламу на сайте!

×
  
Magnet ссылка

Коллекционер / The Collector (Маркус Данстэн) [2009, Ужасы, триллер, BDRip-HEVC 1080p, (10 bit)] DUB pb.wtf

Коллекционер через торрент pb.wtf

Размер: 11.38 GB | Добавлен: 2 года 3 мес. назад | Торрент скачан:86 раз
Смотреть онлайн Коллекционер | Скачать    Ребята, помогите собрать деньги на оплату серверов!!!

10-02-2020 18:47 Коллекционер Скачать торрент  

Коллекционер | The Collector Год выпуска: 2009
Страна: США
Жанр: Ужасы, триллер
Продолжительность: 01:29:51
Перевод: Дублированный
Субтитры: Русские (полные), английские (полные)

Режиссер: Маркус Данстэн

rating

В ролях: Джош Стюарт, Майкл Рейли Бурк, Андреа Рот, Хуан Фернандес, Карли Скотт Коллинз, Даниелла Алонсо, Хейли Пуллос, William Prael, Дайан Голднер, Алекс Фельдман

Описание: Бывший домушник Аркин забирается в загородный коттедж своего начальника с тем, чтобы ограбив его, выплатить долг своей бывшей жене. Однако попав внутрь, он вскоре понимает, что дом и его обитатели уже захвачены крайне неприятным типом в плюшевой маске и при полном наборе пыточных инструментов времен Испанской Инквизиции, после чего предпринимает отчаянную попытку спасти семью, которую он изначально собирался обчистить.

Качество: BDRip-HEVC 1080p
Формат: MKV

Видео: HEVC/x.265, 1920x800, ~16,2 Mbps, 10 bit
Аудио#1: AC3, 6 ch, 384 Kbps | Русский, Дублированный
Аудио#2: DTS, 6 ch, 1509 Kbps | Английский, Оригинал
скриншот  скриншот  скриншот  скриншот  

Формат : Matroska
Версия формата : Version 4
Размер файла : 11,4 Гбайт
Продолжительность : 1 ч. 29 м.
Общий поток : 18,1 Мбит/сек
Название фильма : The Collector (2009) Encoded_by_M@kSIMus
Дата кодирования : UTC 2020-01-19 15:39:07
Программа кодирования : mkvmerge v40.0.0 ('Old Town Road + Pony') 64-bit
Библиотека кодирования : libebml v1.3.9 + libmatroska v1.5.2
Обложка : Yes
Attachments : cover1.jpg

Видео
Идентификатор : 1
Формат : HEVC
Формат/Информация : High Efficiency Video Coding
Профиль формата : Main 10@L4.1@High
Идентификатор кодека : V_MPEGH/ISO/HEVC
Продолжительность : 1 ч. 29 м.
Битрейт : 16,2 Мбит/сек
Ширина : 1920 пикселей
Высота : 800 пикселей
Соотношение сторон : 2,40:1
Режим частоты кадров : Постоянный
Частота кадров : 24,000 кадра/сек
Цветовое пространство : YUV
Субдискретизация насыщенности : 4:2:0
Битовая глубина : 10 бит
Бит/(Пиксели*Кадры) : 0.441
Размер потока : 10,2 Гбайт (90%)
Библиотека кодирования : x265 3.2+5-354901970679:[Windows][clang 8.0.1][64 bit] 10bit
Язык : English
Default : Да
Forced : Нет
Цветовой диапазон : Limited
Основные цвета : BT.709
Характеристики трансфера : BT.709
Коэффициенты матрицы : BT.709

Аудио #1
Идентификатор : 2
Формат : AC-3
Формат/Информация : Audio Coding 3
Коммерческое название : Dolby Digital
Идентификатор кодека : A_AC3
Продолжительность : 1 ч. 29 м.
Вид битрейта : Постоянный
Битрейт : 384 Кбит/сек
Каналы : 6 каналов
ChannelLayout : L R C LFE Ls Rs
Частота : 48,0 КГц
Частота кадров : 31,250 кадров/сек (1536 SPF)
Битовая глубина : 16 бит
Метод сжатия : С потерями
Размер потока : 247 Мбайт (2%)
Заголовок : Дубляж
Язык : Russian
Default : Да
Forced : Нет

Аудио #2
Идентификатор : 3
Формат : DTS
Формат/Информация : Digital Theater Systems
Идентификатор кодека : A_DTS
Продолжительность : 1 ч. 29 м.
Вид битрейта : Постоянный
Битрейт : 1509 Кбит/сек
Каналы : 6 каналов
ChannelLayout : C L R Ls Rs LFE
Частота : 48,0 КГц
Частота кадров : 93,750 кадра/сек (512 SPF)
Битовая глубина : 24 бит
Метод сжатия : С потерями
Размер потока : 970 Мбайт (8%)
Заголовок : Оригинал
Язык : English
Default : Нет
Forced : Нет

Текст #1
Идентификатор : 4
Формат : UTF-8
Идентификатор кодека : S_TEXT/UTF8
Идентификатор кодека/Информация : UTF-8 Plain Text
Продолжительность : 1 ч. 28 м.
Битрейт : 27 бит/сек
ElementCount : 362
Размер потока : 18,0 Кбайт (0%)
Заголовок : Full
Язык : Russian
Default : Нет
Forced : Нет

Текст #2
Идентификатор : 5
Формат : UTF-8
Идентификатор кодека : S_TEXT/UTF8
Идентификатор кодека/Информация : UTF-8 Plain Text
Продолжительность : 1 ч. 23 м.
Битрейт : 17 бит/сек
ElementCount : 406
Размер потока : 10,9 Кбайт (0%)
Заголовок : Full
Язык : English
Default : Нет
Forced : Нет

Меню
00:00:00.000 : en:Chapter 00
00:04:45.451 : en:Chapter 01
00:10:47.480 : en:Chapter 02
00:13:15.628 : en:Chapter 03
00:16:13.263 : en:Chapter 04
00:19:56.486 : en:Chapter 05
00:25:03.835 : en:Chapter 06
00:29:08.079 : en:Chapter 07
00:34:54.926 : en:Chapter 08
00:41:55.763 : en:Chapter 09
00:46:55.229 : en:Chapter 10
00:52:57.007 : en:Chapter 11
01:01:31.896 : en:Chapter 12
01:06:31.779 : en:Chapter 13
01:14:24.501 : en:Chapter 14
01:19:04.448 : en:Chapter 15

pb.wtf



Скачать Коллекционер через торрент https://b.radikal.ru/b36/2001/26/170d0ae6549f.jpg Скачать, смотреть онлайн Коллекционер бесплантно в хорошем качестве Описание: Бывший домушник Аркин забирается в загородный коттедж своего начальника с тем, чтобы ограбив его, выплатить долг своей бывшей ... 9.5 10 6
Торрент: Зарегистрирован [2020-02-10 18:47] · скачан: 86 раз
Статус: √ проверено
Размер: 11.38 GB
Как cкачать? Как скачать Коллекционер через торрент | UTorrent

28-11-2019 20:33  

Отключить всю рекламу на сайте

    Дорогой пользователь! Огромная просьба, поблагодарите релизера, оцените раздачу и оставьте свои комментарий, если Вы скачали Коллекционер через торрент бесплатно!
    Комментировать посты могут только пользователи прошедшие не сложную регистрацию
    Показать сообщения:    

    Коллекционер через торрент
    Скачать бесплатно Коллекционер
    Коллекционер скачать торрент
    Коллекционер смотреть онлайн
    Cкачать фильм Коллекционер бесплатно
    Коллекционер скачать торрент в хорошем качестве
    Коллекционер смотреть онлайн бесплатно в хорошем качестве


    Вы не можете начинать темы
    Вы не можете отвечать на сообщения
    Вы не можете редактировать свои сообщения
    Вы не можете удалять свои сообщения
    Вы не можете голосовать в опросах
    Вы не можете прикреплять файлы к сообщениям
    Вы можете скачивать файлы