2 сезон

iTunes

MVO

1

2 сезон

iTunes

iTunes

1 сезон

RePack

30

Новинка

ВАЖНО

ИГРА 18+

pack

RePack

MK11
pack

Легкие деньги

RePack

jed

RePack

fifa19

RePack

RDR2

RePack

NEED FOR SPEED™ PAYBACK

4 сезон

9 сезон

Бесстыжие 9 сезон

Все сериалы

все сериалы на PB.wtf

RePack

FAR CRY 5

Anonymous, добрый вечер, мы не успеваем собрать деньги на оплату серверов за декабрь и январь, помогите нам пожалуйста в это трудное время. В качестве благодарности мы отключим Вам всю рекламу на сайте (укажите свой ник в строку Ваше имя)!

×
  
Magnet ссылка

Коллекционер 2 / The Collection (Маркус Данстэн) [2012, ужасы, боевик, триллер, BDRip-HEVC 1080p, (10 bit)] [US-Transfer] DUB [Лицензия] pb.wtf

Коллекционер 2 через торрент pb.wtf

Размер: 6.35 GB | Добавлен: 11 мес. назад | Торрент скачан:85 раз
Скачать  

10-02-2020 18:47 Коллекционер 2 Скачать торрент  

Коллекционер 2 | The Collection
Год выпуска: 2012
Страна: США
Жанр: ужасы, боевик, триллер
Продолжительность: 01:21:59
Перевод: Дублированный | Лицензия
Субтитры: Русские (полные), английские (полные)

Режиссер: Маркус Данстэн

rating

В ролях: Джош Стюарт, Эмма Фитцпатрик, Кристофер МакДональд, Ли Тергесен, Тим Гриффин, Андре Ройо, Рэндолл Арчер, Шеннон Кэйн, Брэндон, Молале, Эрин Вэй

Описание: Бывалому медвежатнику Аркину чудесным образом удалось выбраться из ловушек, расставленных по дому загадочным маньяком Коллекционером. Аркин был уверен, что он никогда в жизни больше не встретится с Коллекциoнером, но cудьба распоряжается иначе.

Качество: BDRip-HEVC 1080p | US-Transfer
Формат: MKV

Видео: HEVC/x.265, 1920x820, ~9807 Kbps, 10 bit
Аудио#1: AC3, 6 ch, 640 Kbps | Русский, Дублированный
Аудио#2: AC3, 6 ch, 640 Kbps | Английский, Оригинал
скриншот  скриншот  скриншот  скриншот  

x265 info: frame I: 1829, Avg QP:15.23 kb/s: 25519.99
x265 info: frame P: 25580, Avg QP:16.22 kb/s: 14789.72
x265 info: frame B: 90526, Avg QP:18.53 kb/s: 8080.88
x265 info: Weighted P-Frames: Y:8.6% UV:7.4%
x265 info: consecutive B-frames: 17.4% 8.6% 10.3% 21.9% 9.8% 16.1% 5.0% 4.9% 3.0% 3.0%
x265 info: encoded 117935 frames in 122568.30s (0.96 fps), 9806.48 kb/s, Avg QP:17.98

Формат : Matroska
Версия формата : Version 4
Размер файла : 6,35 Гбайт
Продолжительность : 1 ч. 22 м.
Общий поток : 11,1 Мбит/сек
Название фильма : The Collection (2012) Encoded_by_M@kSIMus
Дата кодирования : UTC 2020-01-16 02:45:53
Программа кодирования : mkvmerge v40.0.0 ('Old Town Road + Pony') 64-bit
Библиотека кодирования : libebml v1.3.9 + libmatroska v1.5.2
Обложка : Yes
Attachments : cover2.jpg

Видео
Идентификатор : 1
Формат : HEVC
Формат/Информация : High Efficiency Video Coding
Профиль формата : Main 10@L4.1@High
Идентификатор кодека : V_MPEGH/ISO/HEVC
Продолжительность : 1 ч. 21 м.
Битрейт : 9807 Кбит/сек
Ширина : 1920 пикселей
Высота : 820 пикселей
Соотношение сторон : 2,35:1
Режим частоты кадров : Постоянный
Частота кадров : 23,976 (24000/1001) кадра/сек
Цветовое пространство : YUV
Субдискретизация насыщенности : 4:2:0
Битовая глубина : 10 бит
Бит/(Пиксели*Кадры) : 0.260
Размер потока : 5,62 Гбайт (88%)
Библиотека кодирования : x265 3.2+5-354901970679:[Windows][clang 8.0.1][64 bit] 10bit
Язык : English
Default : Да
Forced : Нет
Цветовой диапазон : Limited

Аудио #1
Идентификатор : 2
Формат : AC-3
Формат/Информация : Audio Coding 3
Коммерческое название : Dolby Digital
Идентификатор кодека : A_AC3
Продолжительность : 1 ч. 22 м.
Вид битрейта : Постоянный
Битрейт : 640 Кбит/сек
Каналы : 6 каналов
ChannelLayout : L R C LFE Ls Rs
Частота : 48,0 КГц
Частота кадров : 31,250 кадров/сек (1536 SPF)
Битовая глубина : 16 бит
Метод сжатия : С потерями
Размер потока : 376 Мбайт (6%)
Заголовок : Дубляж
Язык : Russian
Default : Да
Forced : Нет

Аудио #2
Идентификатор : 3
Формат : AC-3
Формат/Информация : Audio Coding 3
Коммерческое название : Dolby Digital
Идентификатор кодека : A_AC3
Продолжительность : 1 ч. 21 м.
Вид битрейта : Постоянный
Битрейт : 640 Кбит/сек
Каналы : 6 каналов
ChannelLayout : L R C LFE Ls Rs
Частота : 48,0 КГц
Частота кадров : 31,250 кадров/сек (1536 SPF)
Битовая глубина : 16 бит
Метод сжатия : С потерями
Размер потока : 375 Мбайт (6%)
Заголовок : Оригинал
Язык : English
Default : Нет
Forced : Нет

Текст #1
Идентификатор : 4
Формат : UTF-8
Идентификатор кодека : S_TEXT/UTF8
Идентификатор кодека/Информация : UTF-8 Plain Text
Продолжительность : 1 ч. 15 м.
Битрейт : 39 бит/сек
ElementCount : 443
Размер потока : 21,9 Кбайт (0%)
Заголовок : Full
Язык : Russian
Default : Нет
Forced : Нет

Текст #2
Идентификатор : 5
Формат : UTF-8
Идентификатор кодека : S_TEXT/UTF8
Идентификатор кодека/Информация : UTF-8 Plain Text
Продолжительность : 1 ч. 15 м.
Битрейт : 25 бит/сек
ElementCount : 517
Размер потока : 14,1 Кбайт (0%)
Заголовок : Full
Язык : English
Default : Нет
Forced : Нет

Меню
00:00:00.000 : :Chapter 01
00:09:29.485 : :Chapter 02
00:15:30.471 : :Chapter 03
00:24:00.856 : :Chapter 04
00:33:32.927 : :Chapter 05
00:42:16.742 : :Chapter 06
00:49:19.998 : :Chapter 07
00:54:59.421 : :Chapter 08
01:01:23.346 : :Chapter 09
01:06:37.368 : :Chapter 10
01:10:40.611 : :Chapter 11
01:13:54.054 : :Chapter 12

pb.wtf



Скачать Коллекционер 2 через торрент https://d.radikal.ru/d26/2001/3a/2ce60a7d4358.jpg Скачать фильм Коллекционер 2 через торрент бесплантно в хорошем качестве Описание: Бывалому медвежатнику Аркину чудесным образом удалось выбраться из ловушек, расставленных по дому загадочным маньяком ... 10 10 8
Торрент: Зарегистрирован [2020-02-10 18:47] · скачан: 85 раз
Статус: √ проверено
Размер: 6.35 GB
Как cкачать? Как скачать Коллекционер 2 через торрент | UTorrent

% Раздел Тема Автор DL S | L
Фильмы 2012 [ 1.36 GB ] Коллекционер 2 / The Collection [2012 DVDRip DUB лицензия] филиппок Скачать
1 | 0
Фильмы [HD 720p, 1080p] (Хороший звук DUB, MVO) [ 5.77 GB ] Коллекционер 2 / The Collection [2012 BDRip 720p лицензия] Ke$h@ Скачать
1 | 0
Фильмы [HD 720p, 1080p] (Хороший звук DUB, MVO) [ 11.31 GB ] Коллекционер 2 / The Collection [2012 BDRip 1080p DUB + Оригинал+Sub rus] Trava-HD Скачать
1 | 0
Фильмы 2012 [ 1.37 GB ] Коллекционер 2 / The Collection [2012 BDRip DUB / лицензия] Mr. Freeman Скачать
1 | 0
Фильмы [HD 720p, 1080p] (Хороший звук DUB, MVO) [ 4.5 GB ] Коллекционер 2 / The Collection [2012 BDRip 720p DUB лицензия] Sудья Скачать
1 | 0
Фильмы (DVD фильмы) [ 5.75 GB ] Коллекционер 2 / The Collection [2012 DVD9] R5 voovaz Скачать
1 | 0
Фильмы (Blu-ray, BD-Remux, HDDVD) [ 22.08 GB ] Коллекционер 2 / The Collection [2012 Blu-Ray DUB лицензия] Pavlin Скачать
1 | 0

28-11-2019 20:33  

Отключить всю рекламу на сайте

    Дорогой пользователь! Огромная просьба, поблагодарите релизера, оцените раздачу и оставьте свои комментарий, если Вы скачали Коллекционер 2 через торрент бесплатно! Внесите свою лепту в развитие PiratBit!
    Комментировать посты могут только пользователи прошедшие не сложную регистрацию
    Показать сообщения:    

    Коллекционер 2 через торрент
    Скачать бесплатно Коллекционер 2
    Коллекционер 2 скачать торрент
    Коллекционер 2 смотреть онлайн
    Cкачать фильм Коллекционер 2 бесплатно
    Коллекционер 2 скачать торрент в хорошем качестве
    Коллекционер 2 смотреть онлайн бесплатно в хорошем качестве


    Вы не можете начинать темы
    Вы не можете отвечать на сообщения
    Вы не можете редактировать свои сообщения
    Вы не можете удалять свои сообщения
    Вы не можете голосовать в опросах
    Вы не можете прикреплять файлы к сообщениям
    Вы можете скачивать файлы