Anonymous, доброе утро, присоединяйтесь к нам в Telegram!, здесь всегда актуальный адрес сайта, оперативная поддержка и многое другое!

>

5.6

iTunes

7.4

iTunes

5.7

MVO

1

7.7

1 сезон

6.8

iTunes

7.3

1 сезон

13

6.7

1 сезон

8.3

RePack

30

ULTIMATE

pack

9.9

Лицензия

ВАЖНО

ИГРА 18+

pack

7.3

RePack

MK11

7.7

RePack

jed

7.8

RePack

fifa19

8.5

RePack

RDR2

RePack

NEED FOR SPEED™ PAYBACK

4 сезон

9 сезон

Бесстыжие 9 сезон

Все сериалы

все сериалы на PB.wtf

RePack

FAR CRY 5

Anonymous, доброе утро, мы катастрофически не успеваем собрать деньги на оплату серверов, помогите нам пожалуйста 5,10,15р., для нас важна любая помощь . В качестве благодарности мы отключим Вам всю рекламу на сайте (укажите свой ник в строку Ваше имя)!

×
  
Magnet ссылка

Родина / Чужой среди своих / Homeland / Сезон: 8 / Серии: 1-3 из 12 (Лесли Линка Глаттер, Майкл Куэста, Дэниэл Эттиэс) [2020, Триллер, драма, криминал, детектив, WEB-DL 1080p] MVO [TVShows] pb.wtf

Родина через торрент pb.wtf

Размер: 10.94 GB | Добавлен: 1 год 7 мес. назад | Торрент скачан:0 раз
Смотреть онлайн Родина | Скачать    Ребята, помогите собрать деньги на оплату серверов!!!

11-02-2020 07:54 Родина Скачать торрент  

Родина | Чужой среди своих | Homeland
Год выпуска: 2020
Страна: США
Жанр: Триллер, драма, криминал, детектив
Продолжительность: ~ 01:00:00
Перевод: Профессиональный многоголосый | TVShows
Субтитры: Английские

Режиссер: Лесли Линка Глаттер, Майкл Куэста, Дэниэл Эттиэс

rating


В ролях: Клер Дэйнс, Руперт Френд, Элизабет Марвел, Ф. Мюррэй Абрахам, Мэнди Пэтинкин, Хилл Харпер, Мори Стерлинг, Эшли Шарп Честнат, Доминик Фумуса, Патрик Сабонги, Зайнаб Джа, Альфредо Нарцисо, Джамал Маллори-МакКри, Бернард Уайт, Аллан Кордунер, Нина Хосс, Джейк Уэбер, Дебора Хедуолл

Описание: С восьмым сезоном возвращается культовый сериал "Родина". Противостояние между главным террористом Америки и агентом ЦРУ уже закончилось. Блондинка выиграла эту войну. Броуди теперь мертв, а Соул уволен из ЦРУ. Кэрри Мэттисон продолжает деятельность, надеясь, что справится с многочисленными очагами возгорания террористической активности. Она - уверенная в себе девушка, которая знает, как работать с подобными делами. Главная героиня долгое время отдавала честь родине и стремилась защитить её границы. Теперь её ожидают новые испытания. Сериал "Родина" возвращается с восьмым сезоном на экраны.

Качество: WEB-DL 1080p
Формат: MKV

Видео: 1920x1080 at 23.976 fps, MPEG-4 AVC, ~8400 kbps avg
Аудио#1: Russian: 48 kHz, AC3, 3/2 (L,C,R,l,r) + LFE ch, ~384 kbps avg
Аудио#2: English: 48 kHz, E-AC3, 3/2 (L,C,R,l,r) + LFE ch, ~640 kbps avg
скриншот  скриншот  скриншот  скриншот  

Общее
Уникальный идентификатор : 81380312881187507330003319097077903510 (0x3D3947349601BB168F2DE4BE3315B096)
Полное имя : D:\Homeland.S08.1080p.TVShows\Homeland.S08E01.1080p.TVShows.mkv
Формат : Matroska
Версия формата : Version 4 / Version 2
Размер файла : 3,91 Гбайт
Продолжительность : 59 м. 22 с.
Общий поток : 9440 Кбит/сек
Дата кодирования : UTC 2020-02-11 06:44:59
Программа кодирования : mkvmerge v33.1.0 ('Primrose') 64-bit
Библиотека кодирования : libebml v1.3.7 + libmatroska v1.5.0

Видео
Идентификатор : 1
Формат : AVC
Формат/Информация : Advanced Video Codec
Профиль формата : High@L4
Параметр CABAC формата : Да
Параметр RefFrames формата : 4 кадра
Идентификатор кодека : V_MPEG4/ISO/AVC
Продолжительность : 59 м. 22 с.
Вид битрейта : Постоянный
Битрейт : 8328 Кбит/сек
Номинальный битрейт : 10000 Кбит/сек
Ширина : 1920 пикселей
Высота : 1080 пикселей
Соотношение сторон : 16:9
Режим частоты кадров : Постоянный
Частота кадров : 23,976 (24000/1001) кадра/сек
Цветовое пространство : YUV
Субдискретизация насыщенности : 4:2:0
Битовая глубина : 8 бит
Тип развёртки : Прогрессивная
Бит/(Пиксели*Кадры) : 0.165
Размер потока : 3,41 Гбайт (87%)
Default : Да
Forced : Нет
Цветовой диапазон : Limited
Основные цвета : BT.709
Характеристики трансфера : BT.709
Коэффициенты матрицы : BT.709

Аудио #1
Идентификатор : 2
Формат : AC-3
Формат/Информация : Audio Coding 3
Расширение режима : CM (complete main)
Параметр Endianness формата : Big
Идентификатор кодека : A_AC3
Продолжительность : 59 м. 22 с.
Вид битрейта : Постоянный
Битрейт : 384 Кбит/сек
Каналы : 6 каналов
Расположение каналов : Front: L C R, Side: L R, LFE
Частота : 48,0 КГц
Частота кадров : 31,250 кадров/сек (1536 spf)
Метод сжатия : С потерями
Размер потока : 163 Мбайт (4%)
Заголовок : TVShows
Язык : Russian
Default : Да
Forced : Да

Аудио #2
Идентификатор : 3
Формат : E-AC-3
Формат/Информация : Audio Coding 3
Параметр Endianness формата : Big
Идентификатор кодека : A_EAC3
Продолжительность : 59 м. 22 с.
Вид битрейта : Постоянный
Битрейт : 640 Кбит/сек
Каналы : 6 каналов
Расположение каналов : Front: L C R, Side: L R, LFE
Частота : 48,0 КГц
Частота кадров : 187,500 кадров/сек (256 spf)
Метод сжатия : С потерями
Задержка видео : 18 мс.
Размер потока : 272 Мбайт (7%)
Заголовок : Original
Язык : English
Default : Нет
Forced : Нет

Текст
Идентификатор : 4
Формат : UTF-8
Идентификатор кодека : S_TEXT/UTF8
Идентификатор кодека/Информация : UTF-8 Plain Text
Заголовок : English
Язык : English
Default : Нет
Forced : Нет

Когда раздача ведётся путём добавления новых серий, при каждом добавлении создётся новый торрент. Чтобы начать докачку новой серии, пользователям необходимо сделать следующее:
(1) остановить скачивание,
(2) удалить старый торрент у себя из клиента (старые серии удалять не надо),
(3) скачать новый торрент и запустить его у себя в клиенте вместо старого, при этом указать клиенту путь в старую папку, куда и должно происходить скачивание новых серий.
Ваш клиент при этом должен произвести хеширование (проверку) старой папки (если не производит сам - помогите ему сделать это), и будет докачивать только те серии, которых у вас ещё нет. Старые серии при этом не удаляются, а продолжают раздаваться!
Eсли вы уже удалили старые серии, то предотвратить повторную закачку старых серий можно, отжав галочку в соответсвующих местах при запуске нового торрента. По возможности, желательно не удалять старые серии как можно дольше, чтобы релизёр не столько продолжал раздавать старые серии, а смог сконцентрироваться на новых.
pb.wtf



Скачать Родина через торрент https://a.radikal.ru/a39/2002/de/8455823cfda5.jpg Скачать, смотреть онлайн Родина бесплантно в хорошем качестве Описание: С восьмым сезоном возвращается культовый сериал "Родина". Противостояние между главным террористом Америки и агентом ЦРУ уже ... 10 10 3
Торрент: Зарегистрирован [2020-02-25 17:21] · скачан: 0 раз
Статус: √ проверено
Размер: 10.94 GB
Как cкачать? Как скачать Родина через торрент | UTorrent

% Раздел Тема Автор DL S | L
Родина / Чужой среди своих / Homeland [ 5.52 GB ] Родина / Чужой среди своих / Homeland / Сезон: 8 / Серии: 1-3 из 12 [2020 WEB-DL 720p] MVO [TVShows] bober100 Скачать
1 | 0


Последний раз редактировалось: bober100 (2020-02-25 17:21), всего редактировалось 1 раз

28-11-2019 20:33  

Отключить всю рекламу на сайте

18-02-2020 19:31 Родина Скачать торрент  

спасибо. ждал.pb.wtf



    Дорогой пользователь! Огромная просьба, поблагодарите релизера, оцените раздачу и оставьте свои комментарий, если Вы скачали Родина через торрент бесплатно!
    Комментировать посты могут только пользователи прошедшие не сложную регистрацию
    Показать сообщения:    

    Родина через торрент
    Скачать бесплатно Родина
    Родина скачать торрент
    Родина смотреть онлайн
    Cкачать фильм Родина бесплатно
    Родина скачать торрент в хорошем качестве
    Родина смотреть онлайн бесплатно в хорошем качестве


    Вы не можете начинать темы
    Вы не можете отвечать на сообщения
    Вы не можете редактировать свои сообщения
    Вы не можете удалять свои сообщения
    Вы не можете голосовать в опросах
    Вы не можете прикреплять файлы к сообщениям
    Вы можете скачивать файлы