Ссылка на приватное зеркало нашего сайта всего за 1$. Внимание количество ограничено!!!

2 сезон

iTunes

1 сезон

1

iTunes

iTunes

iTunes

1 сезон

RePack

30

ИГРА 18+

pack

ВАЖНО

!!Акция!!

Alien_RageХит недели

RePack

MK11
pack

Забери бонус

RePack

jed

!!Акция!!

Alien_Rage

RePack

fifa19

RePack

Assassins Creed: Odyssey

RePack

NEED FOR SPEED™ PAYBACK

4 сезон

9 сезон

Бесстыжие 9 сезон

Все сериалы

все сериалы на PB.wtf

RePack

FAR CRY 5
  

Дьявол / Devil (Джон Е. Даудл) [2010 г., ужасы, триллер, детектив, BDRip 720p] DUB R5 pb.wtf

Дьявол через торрент pb.wtf

Размер: 4.57 GB | Добавлен: 9 лет 9 мес. назад | Торрент скачан:22 раза
Скачать  

27-01-2011 09:18 Дьявол Скачать торрент  

Дьявол
Devil

«Зло не приходит случайно»

Название: Дьявол
Оригинальное название: Devil
Год выхода: 2010
Жанр: ужасы, триллер, детектив
Режиссер: Джон Е. Даудл
В ролях: Крис Мессина, Логан Маршалл-Грин, Дженни О`Хара, Бояна Новакович, Букем Вудбайн, Джеффри Аренд, Джейкоб Варгас, Мэтт Крэвен, Джошуа Пиис, Каролин Давернас

Описание:
Несколько людей, оказавшихся в застрявшем лифте, со временем понимают, что среди них присутствует сам дьявол.



Выпущено: США, Media Rights Capital
Продолжительность: 01:20:28
Озвучивание: Дублированное [лицензия]

Файл
Формат: MKV
Качество: BDRip 720p
Видео: 1280x534 (2.35:1), 23.976 fps, 7 086 Kbps (0.432 bit/pixel)
Аудио: Russian: AC3, 384 kb/s (6 ch) / English: AC3, 640 kb/s (6 ch)
Субтитры: Russian, English
Размер: 4.57 GB
Дополнительно: Сохранены оригинальные чаптеры как на Blu-ray.
Скачать: Сэмпл

Код:

Полное имя                       : JurganT: Devil.2010.D.BDRip.720p.[uniongang.tv].mkv
Формат                           : Matroska
Размер файла                     : 4,57 Гбайт
Продолжительность                : 1 ч. 20 м.
Общий поток                      : 8121 Кбит/сек
Название фильма                  : Дьявол / Devil (2010) .....:::UNIONGANG:::.....
Дата кодирования                 : UTC 2011-01-26 13:05:56
Программа кодирования            : mkvmerge v3.4.0 ('Rapunzel') сборка от May 15 2010 09:38:20
Библиотека кодирования           : libebml v0.8.0 + libmatroska v0.9.0

Видео
Идентификатор                    : 1
Формат                           : AVC
Формат/Информация                : Advanced Video Codec
Профиль формата                  : High@L4.1
Параметр CABAC формата           : Да
Параметр ReFrames формата        : 10 кадры
Идентификатор кодека             : V_MPEG4/ISO/AVC
Продолжительность                : 1 ч. 20 м.
Битрейт                          : 7111 Кбит/сек
Ширина                           : 1280 пикс.
Высота                           : 534 пикс.
Соотношение сторон               : 2,35:1
Частота кадров                   : 23,976 кадр/сек
Цветовое пространство            : YUV
Подвыборка цветности             : 4:2:0
Битовая глубина                  : 8 бит
Тип развёртки                    : Прогрессивная
Бит/(Пиксели*Кадры)              : 0.434
Размер потока                    : 3,90 Гбайт (85%)
Заголовок                        : Devil.2010.D.BDRip.720p.EbP
Библиотека кодирования           : x264 core 112 r1834 a51816a
Настройки программы              : cabac=1 / ref=10 / deblock=1:-3:-3 / analyse=0x3:0x113 / me=tesa / subme=10 / psy=1 / psy_rd=1.00:0.00 / mixed_ref=1 / me_range=16 / chroma_me=1 / trellis=2 / 8x8dct=1 / cqm=0 / deadzone=21,11 / fast_pskip=0 / chroma_qp_offset=-2 / threads=6 / sliced_threads=0 / nr=0 / decimate=0 / interlaced=0 / constrained_intra=0 / bframes=7 / b_pyramid=2 / b_adapt=2 / b_bias=0 / direct=3 / weightb=1 / open_gop=0 / weightp=2 / keyint=250 / keyint_min=23 / scenecut=40 / intra_refresh=0 / rc=2pass / mbtree=0 / bitrate=7111 / ratetol=1.0 / qcomp=0.60 / qpmin=10 / qpmax=51 / qpstep=4 / cplxblur=20.0 / qblur=0.5 / ip_ratio=1.40 / pb_ratio=1.30 / aq=1:0.80
Язык                             : English

Аудио #1
Идентификатор                    : 2
Формат                           : AC-3
Формат/Информация                : Audio Coding 3
Расширение режима                : CM (complete main)
Идентификатор кодека             : A_AC3
Продолжительность                : 1 ч. 20 м.
Вид битрейта                     : Постоянный
Битрейт                          : 384 Кбит/сек
Канал(ы)                         : 6 канала(ов)
Расположение каналов             : Front: L C R, Side: L R, LFE
Частота                          : 48,0 КГц
Битовая глубина                  : 16 бит
Метод сжатия                     : С потерями
Размер потока                    : 221 Мбайт (5%)
Заголовок                        : AC3 5.1 @ 384 kb/s [Russian DUB R5]
Язык                             : Russian

Аудио #2
Идентификатор                    : 3
Формат                           : AC-3
Формат/Информация                : Audio Coding 3
Расширение режима                : CM (complete main)
Идентификатор кодека             : A_AC3
Продолжительность                : 1 ч. 20 м.
Вид битрейта                     : Постоянный
Битрейт                          : 640 Кбит/сек
Канал(ы)                         : 6 канала(ов)
Расположение каналов             : Front: L C R, Side: L R, LFE
Частота                          : 48,0 КГц
Битовая глубина                  : 16 бит
Метод сжатия                     : С потерями
Размер потока                    : 368 Мбайт (8%)
Заголовок                        : AC3 5.1 @ 640 kb/s [English]
Язык                             : English

Текст #1
Идентификатор                    : 4
Формат                           : UTF-8
Идентификатор кодека             : S_TEXT/UTF8
Идентификатор кодека/Информация  : UTF-8 Plain Text
Заголовок                        : Russian SUB
Язык                             : Russian

Текст #2
Идентификатор                    : 5
Формат                           : UTF-8
Идентификатор кодека             : S_TEXT/UTF8
Идентификатор кодека/Информация  : UTF-8 Plain Text
Заголовок                        : English SUB
Язык                             : English

Меню
00:00:00.000                     : en:Chapter 1
00:04:10.750                     : en:Chapter 2
00:07:00.629                     : en:Chapter 3
00:10:07.524                     : en:Chapter 4
00:14:37.585                     : en:Chapter 5
00:18:17.388                     : en:Chapter 6
00:21:09.226                     : en:Chapter 7
00:25:28.610                     : en:Chapter 8
00:30:11.184                     : en:Chapter 9
00:34:42.706                     : en:Chapter 10
00:37:10.437                     : en:Chapter 11
00:41:31.489                     : en:Chapter 12
00:45:33.856                     : en:Chapter 13
00:49:19.832                     : en:Chapter 14
00:53:40.134                     : en:Chapter 15
00:57:36.912                     : en:Chapter 16
01:02:01.343                     : en:Chapter 17
01:06:31.946                     : en:Chapter 18
01:13:40.875                     : en:Chapter 19
01:15:47.710                     : en:Chapter 20

pb.wtf



Скачать Дьявол через торрент http://epikz.net/i/s0/c/cjheqg/cjheqg.png Скачать фильм Дьявол через торрент бесплантно в хорошем качестве Описание:Несколько людей, оказавшихся в застрявшем лифте, со временем понимают, что среди них присутствует сам дьявол. Выпущено: США, ... 5 10 3
Info! Золотая раздача, скачанное не засчитывается.
Торрент: Зарегистрирован [2011-01-27 09:18] · скачан: 22 раз
Статус: √ проверено
Размер: 4.57 GB
Как cкачать? Как скачать Дьявол через торрент | qTorrent

% Раздел Тема Автор DL S | L
Фильмы 2006-2008 [ 2.18 GB ] Адвокат дьявола / The Devil's Advocate [UNRATED] [1997 HDRip-AVC] DUB [R5] от R.G. PiratFilms Phoenix Скачать
1 | 0

28-11-2019 20:33  

Отключить всю рекламу на сайте

27-01-2011 10:08 Дьявол Скачать торрент  

Огромное спасибо за качество! Наконец то!pb.wtf



27-01-2011 11:52 Дьявол Скачать торрент  

bezobraziee
всегда пожалуйста pb.wtf



27-01-2011 13:05 Дьявол Скачать торрент  

А что со скоростью?...pb.wtf



    Дорогой пользователь! Огромная просьба, поблагодарите релизера, оцените раздачу и оставьте свои комментарий, если Вы скачали Дьявол через торрент бесплатно! Внесите свою лепту в развитие PiratBit!
    Комментировать посты могут только пользователи прошедшие не сложную регистрацию
    Показать сообщения:    

    Дьявол через торрент
    Скачать бесплатно Дьявол
    Дьявол скачать торрент
    Дьявол смотреть онлайн
    Cкачать фильм Дьявол бесплатно
    Дьявол скачать торрент в хорошем качестве
    Дьявол смотреть онлайн бесплатно в хорошем качестве


    Вы не можете начинать темы
    Вы не можете отвечать на сообщения
    Вы не можете редактировать свои сообщения
    Вы не можете удалять свои сообщения
    Вы не можете голосовать в опросах
    Вы не можете прикреплять файлы к сообщениям
    Вы можете скачивать файлы